***Уважаемые пользователи и гости !!! Сайт переехал на новый домен Torrents-club.info. Просьба изменить ваши закладки! ***
 
[ Сегодня идет свободное скачивание без начисления Download ]


Статистика раздачи
Скачал: [ 1 ]
 
   
 
 
 
Крестная мама / La DaronneИнформация о фильме
Название: Крестная мама
Оригинальное название: La Daronne
Год выхода: 2020
Жанр: Драма, комедия, криминал
Режиссер: Жан-Поль Саломе
В ролях: Изабель Юппер, Ипполит Жирардо, Фарида Ушани, Лилиан Ровер, Ирис Бри, Надя Нгуйен, Ребекка Мардер, Рашид Гуэллаз, Мурад Будауд, Юссеф Сарауи

О фильме: Талантливая переводчица работает в полиции, помогая раскрывать преступления. Однажды ей становится известно о крупной партии наркотиков. Соблазн изменить жизнь слишком велик. И вот она превращается в НаркоМаму, которая строит свою империю. Теперь вся полиция охотится за ней.
Страна: Франция
Студия: Les Films du Lendemain, La Boétie Films, Le Pacte
Продолжительность: 01:45:14
Перевод: Дублированный | iTunes
Качество: BDRip 1080p
Видео: MPEG-4 AVC, 1920x804, 11.6 Mbit/s, 23.976 fps
Аудио #01: 48 kHz, AC3, 5.1, 384 Kbps | iTunes | RUS |
Аудио #02: 48 kHz, AC3, 5.1, 640 Kbps | Оригинал | FRE |
Субтитры: Английские

Скриншоты:

MI

General
Unique ID : 127177579657124219453182881639912440412 (0x5FAD82C9CB4F7BB1BDA30120B9C0025C)
Complete name : E:VideoFirstLa.Daronne.2020.BDRip.1080p.seleZen.mkv
Format : Matroska
Format version : Version 4
File size : 9.28 GiB
Duration : 1 h 45 min
Overall bit rate : 12.6 Mb/s
Movie name : La Daronne 2020 from seleZen
Encoded date : UTC 2021-01-09 20:16:27
Writing application : mkvmerge v40.0.0 ('Old Town Road + Pony') 64-bit
Writing library : libebml v1.3.9 + libmatroska v1.5.2
Video
ID : 1
Format : AVC
Format/Info : Advanced Video Codec
Format profile : High@L4.1
Format settings : CABAC / 5 Ref Frames
Format settings, CABAC : Yes
Format settings, Reference : 5 frames
Codec ID : V_MPEG4/ISO/AVC
Duration : 1 h 45 min
Bit rate : 11.6 Mb/s
Width : 1 920 pixels
Height : 804 pixels
Display aspect ratio : 2.40:1
Frame rate mode : Constant
Frame rate : 23.976 (24000/1001) FPS
Color space : YUV
Chroma subsampling : 4:2:0
Bit depth : 8 bits
Scan type : Progressive
Bits/(Pixel*Frame) : 0.313
Stream size : 8.52 GiB (92%)
Writing library : x264 core 161 -from seleZen
Encoding settings : cabac=1 / ref=5 / deblock=1:-2:-2 / analyse=0x3:0x113 / me=umh / subme=10 / psy=1 / psy_rd=1.06:0.05 / mixed_ref=1 / me_range=32 / chroma_me=1 / trellis=2 / 8x8dct=1 / cqm=0 / deadzone=21,11 / fast_pskip=0 / chroma_qp_offset=-3 / threads=24 / lookahead_threads=4 / sliced_threads=0 / nr=0 / decimate=0 / interlaced=0 / bluray_compat=0 / constrained_intra=0 / bframes=9 / b_pyramid=2 / b_adapt=2 / b_bias=0 / direct=3 / weightb=1 / open_gop=0 / weightp=2 / keyint=240 / keyint_min=23 / scenecut=40 / intra_refresh=0 / rc_lookahead=40 / rc=2pass / mbtree=0 / bitrate=11600 / ratetol=1.0 / qcomp=0.60 / qpmin=0 / qpmax=51 / qpstep=4 / cplxblur=20.0 / qblur=0.5 / vbv_maxrate=50000 / vbv_bufsize=62000 / nal_hrd=none / filler=0 / ip_ratio=1.40 / pb_ratio=1.30 / aq=3:0.80
Language : French
Default : Yes
Forced : No
Audio #1
ID : 2
Format : AC-3
Format/Info : Audio Coding 3
Commercial name : Dolby Digital
Codec ID : A_AC3
Duration : 1 h 45 min
Bit rate mode : Constant
Bit rate : 384 kb/s
Channel(s) : 6 channels
Channel layout : L R C LFE Ls Rs
Sampling rate : 48.0 kHz
Frame rate : 31.250 FPS (1536 SPF)
Compression mode : Lossy
Stream size : 289 MiB (3%)
Title : iTunes
Language : Russian
Service kind : Complete Main
Default : Yes
Forced : Yes
Audio #2
ID : 3
Format : AC-3
Format/Info : Audio Coding 3
Commercial name : Dolby Digital
Codec ID : A_AC3
Duration : 1 h 45 min
Bit rate mode : Constant
Bit rate : 640 kb/s
Channel(s) : 6 channels
Channel layout : L R C LFE Ls Rs
Sampling rate : 48.0 kHz
Frame rate : 31.250 FPS (1536 SPF)
Compression mode : Lossy
Stream size : 482 MiB (5%)
Title : Original
Language : French
Service kind : Complete Main
Default : No
Forced : No
Text
ID : 4
Format : UTF-8
Codec ID : S_TEXT/UTF8
Codec ID/Info : UTF-8 Plain Text
Duration : 1 h 43 min
Bit rate : 42 b/s
Count of elements : 1192
Stream size : 32.6 KiB (0%)
Title : Full
Language : French
Default : No
Forced : No
Menu
00:00:00.000 : fr:Глава 01
00:07:51.346 : fr:Глава 02
00:15:56.581 : fr:Глава 03
00:23:09.054 : fr:Глава 04
00:31:07.824 : fr:Глава 05
00:39:49.971 : fr:Глава 06
00:47:00.401 : fr:Глава 07
00:55:30.911 : fr:Глава 08
01:05:44.065 : fr:Глава 09
01:14:08.444 : fr:Глава 10
01:23:14.823 : fr:Глава 11
01:31:47.377 : fr:Глава 12
01:40:11.964 : fr:Глава 13

[Цитировать]



Показать сообщения:    

Текущее время: 23-Май 15:21

Часовой пояс: UTC + 6


Вы не можете начинать темы
Вы не можете отвечать на сообщения
Вы не можете редактировать свои сообщения
Вы не можете удалять свои сообщения
Вы не можете голосовать в опросах
Вы не можете прикреплять файлы к сообщениям
Вы не можете скачивать файлы

!ВНИМАНИЕ!
Сайт не предоставляет электронные версии произведений, а занимается лишь коллекционированием и каталогизацией ссылок, присылаемых и публикуемых на форуме нашими читателями. Если вы являетесь правообладателем какого-либо представленного материала и не желаете, чтобы ссылка на него находилась в нашем каталоге, свяжитесь с нами, и мы незамедлительно удалим ее. Файлы для обмена на трекере предоставлены пользователями сайта, и администрация не несет ответственности за их содержание. Просьба не заливать файлы, защищенные авторскими правами, а также файлы нелегального содержания!