***Уважаемые пользователи и гости !!! Сайт переехал на новый домен Torrents-club.info. Просьба изменить ваши закладки! ***
 
[ Сегодня идет свободное скачивание без начисления Download ]


Статистика раздачи
Скачал: [ 1 ]
 
   
 
 
 
Город тайн / Засуха / The Dry
«Что скрывает ложь?»
- Производство: Австралия, США / Arenamedia, Cornerstone Films, Film Victoria, Made Up Stories, Media Super, Pick Up Truck Pictures, Screen Australia
Жанр: Триллер, драма, криминал, детектив
Режиссер: Роберт Коннолли
Продюсер: Стивен Хутенски, Джоди Маттерсон, Бруна Папандреа
Актеры: Эрик Бана, Женевьев О'Рейли, Кейр О'Доннелл, Джон Полсон, Джулия Блейк, Брюс Спенс, Уильям Заппа, Мэтью Нэйбл, Джеймс Фрешвилл, Джереми Линдсэй Тейлор
Описание:
Аарон Фальк, сделавший блестящую карьеру в федеральной полиции, спустя 20 лет приезжает в родной город на похороны своего когда-то лучшего друга Люка. Факты указывают на то, что тот убил жену и сына, а потом застрелился сам, но знавшие Люка не могут в это поверить. Неохотно принявшись за расследование, Фальк вскоре обнаруживает связь между этим делом и давним событием — смертью 17-летней Элли, их общей с Люком подруги.

Возраст: 16+ (зрителям, достигшим 16 лет)
Рейтинг MPAA: R (лицам до 17 лет обязательно присутствие взрослого)
Дата мировой премьеры: 11 декабря 2020
Дата российской премьеры: 15 июля 2021, «Экспонента»
Цифровой релиз: 19 августа 2021, «Экспонента»
Продолжительность: 01:57:16
Качество видео: BDRip
Перевод: Дублированный (iTunes), Многоголосый профессиональный (HDRezka Studio)
Язык озвучки: Русский, английский
Субтитры: Русские (Forced), английские (Full, SDH)
Видео: AVC/H.264, 1920x804, ~14.6 Mbps
Аудио 01: AC3, 6 ch, 384 Kbps - Русский (DUB | iTunes)
Аудио 02: AC3, 6 ch, 448 Kbps - Русский (MVO | HDRezka Studio)
Аудио 03: AC3, 6 ch, 448 Kbps - Русский (MVO | HDRezka Studio) Ненормативная лексика.
Аудио 04: AC3, 6 ch, 640 Kbps - Английский

MediaInfo:

Общее
Уникальный идентификатор : 80607229271223755991059044358144955228 (0x3CA4633D9AA53584630E2C468E34935C)
Полное имя : D:\Кино.NNM-Club\The.Dry.2020.BDRip.1080p.NNMClub.mkv
Формат : Matroska
Версия формата : Version 4
Размер файла : 13,5 Гбайт
Продолжительность : 1 ч. 57 м.
Общий поток : 16,5 Мбит/сек
Название фильма : The Dry 2020
Дата кодирования : UTC 2021-08-19 12:28:21
Программа кодирования : mkvmerge v56.1.0 ('My Friend') 64-bit
Библиотека кодирования : libebml v1.4.2 + libmatroska v1.6.4
Видео
Идентификатор : 1
Формат : AVC
Формат/Информация : Advanced Video Codec
Профиль формата : High@L4.1
Настройки формата : CABAC / 5 Ref Frames
Параметр CABAC формата : Да
Параметр RefFrames формата : 5 кадров
Идентификатор кодека : V_MPEG4/ISO/AVC
Продолжительность : 1 ч. 57 м.
Битрейт : 14,6 Мбит/сек
Ширина : 1920 пикселей
Высота : 804 пикселя
Соотношение сторон : 2,40:1
Режим частоты кадров : Постоянный
Частота кадров : 24,000 кадра/сек
Цветовое пространство : YUV
Субдискретизация насыщенности : 4:2:0
Битовая глубина : 8 бит
Тип развёртки : Прогрессивная
Бит/(Пиксели*Кадры) : 0.394
Размер потока : 12,0 Гбайт (88%)
Библиотека кодирования : x264 core 161 r3048+58M ~ Encoded by Mocunaman in Portugal
Настройки программы : cabac=1 / ref=5 / deblock=1:-3:-3 / analyse=0x3:0x113 / me=umh / subme=11 / psy=1 / fade_compensate=0.00 / psy_rd=1.05:0.00 / mixed_ref=1 / me_range=32 / chroma_me=1 / trellis=2 / 8x8dct=1 / cqm=0 / deadzone=21,11 / fast_pskip=0 / chroma_qp_offset=-2 / threads=25 / lookahead_threads=6 / sliced_threads=0 / nr=0 / decimate=0 / interlaced=0 / bluray_compat=0 / constrained_intra=0 / fgo=0 / bframes=10 / b_pyramid=2 / b_adapt=2 / b_bias=0 / direct=3 / weightb=1 / open_gop=0 / weightp=2 / keyint=250 / keyint_min=24 / scenecut=40 / intra_refresh=0 / rc_lookahead=60 / rc=crf / mbtree=0 / crf=18.3000 / qcomp=0.63 / qpmin=0:0:0 / qpmax=69:69:69 / qpstep=4 / vbv_maxrate=62500 / vbv_bufsize=78125 / crf_max=0.0 / nal_hrd=none / filler=0 / ip_ratio=1.30 / pb_ratio=1.20 / aq=3:0.75 / aq-sensitivity=10.00 / aq-factor=1.00:1.00:1.00 / aq2=0 / aq3=0 / zones=0,1368,crf=17.8/17560,26909,crf=17.8/47410,60432,crf=17.8/63399,66167,crf=17.3/87252,100968,crf=17.8/113720,130760,crf=17.6
Язык : English
Default : Да
Forced : Нет
Цветовой диапазон : Limited
Основные цвета : BT.709
Характеристики трансфера : BT.709
Коэффициенты матрицы : BT.709
Аудио #1
Идентификатор : 2
Формат : AC-3
Формат/Информация : Audio Coding 3
Коммерческое название : Dolby Digital
Идентификатор кодека : A_AC3
Продолжительность : 1 ч. 57 м.
Вид битрейта : Постоянный
Битрейт : 384 Кбит/сек
Каналы : 6 каналов
ChannelLayout : L R C LFE Ls Rs
Частота : 48,0 КГц
Частота кадров : 31,250 кадров/сек (1536 SPF)
Битовая глубина : 16 бит
Метод сжатия : С потерями
Размер потока : 322 Мбайт (2%)
Заголовок : DUB | iTunes
Язык : Russian
ServiceKind/String : Complete Main
Default : Да
Forced : Нет
Аудио #2
Идентификатор : 3
Формат : AC-3
Формат/Информация : Audio Coding 3
Коммерческое название : Dolby Digital
Идентификатор кодека : A_AC3
Продолжительность : 1 ч. 57 м.
Вид битрейта : Постоянный
Битрейт : 448 Кбит/сек
Каналы : 6 каналов
ChannelLayout : L R C LFE Ls Rs
Частота : 48,0 КГц
Частота кадров : 31,250 кадров/сек (1536 SPF)
Битовая глубина : 16 бит
Метод сжатия : С потерями
Размер потока : 376 Мбайт (3%)
Заголовок : MVO | HDRezka Studio
Язык : Russian
ServiceKind/String : Complete Main
Default : Нет
Forced : Нет
Аудио #3
Идентификатор : 4
Формат : AC-3
Формат/Информация : Audio Coding 3
Коммерческое название : Dolby Digital
Идентификатор кодека : A_AC3
Продолжительность : 1 ч. 57 м.
Вид битрейта : Постоянный
Битрейт : 448 Кбит/сек
Каналы : 6 каналов
ChannelLayout : L R C LFE Ls Rs
Частота : 48,0 КГц
Частота кадров : 31,250 кадров/сек (1536 SPF)
Битовая глубина : 16 бит
Метод сжатия : С потерями
Размер потока : 376 Мбайт (3%)
Заголовок : MVO | HDRezka Studio (Ненормативная лексика.)
Язык : Russian
ServiceKind/String : Complete Main
Default : Нет
Forced : Нет
Аудио #4
Идентификатор : 5
Формат : AC-3
Формат/Информация : Audio Coding 3
Коммерческое название : Dolby Digital
Идентификатор кодека : A_AC3
Продолжительность : 1 ч. 57 м.
Вид битрейта : Постоянный
Битрейт : 640 Кбит/сек
Каналы : 6 каналов
ChannelLayout : L R C LFE Ls Rs
Частота : 48,0 КГц
Частота кадров : 31,250 кадров/сек (1536 SPF)
Битовая глубина : 16 бит
Метод сжатия : С потерями
Размер потока : 537 Мбайт (4%)
Заголовок : Original
Язык : English
ServiceKind/String : Complete Main
Default : Нет
Forced : Нет
Текст #1
Идентификатор : 6
Формат : UTF-8
Идентификатор кодека : S_TEXT/UTF8
Идентификатор кодека/Информация : UTF-8 Plain Text
Продолжительность : 1 ч. 52 м.
Битрейт : 3 бит/сек
ElementCount : 54
Размер потока : 2,95 Кбайт (0%)
Заголовок : Forced
Язык : Russian
Default : Да
Forced : Нет
Текст #2
Идентификатор : 7
Формат : UTF-8
Идентификатор кодека : S_TEXT/UTF8
Идентификатор кодека/Информация : UTF-8 Plain Text
Продолжительность : 1 ч. 51 м.
Битрейт : 46 бит/сек
ElementCount : 1331
Размер потока : 38,4 Кбайт (0%)
Заголовок : Full
Язык : English
Default : Нет
Forced : Нет
Текст #3
Идентификатор : 8
Формат : UTF-8
Идентификатор кодека : S_TEXT/UTF8
Идентификатор кодека/Информация : UTF-8 Plain Text
Продолжительность : 1 ч. 54 м.
Битрейт : 55 бит/сек
ElementCount : 1621
Размер потока : 46,0 Кбайт (0%)
Заголовок : SDH
Язык : English
Default : Нет
Forced : Нет
Меню
00:00:00.000 : Chapter 01
00:10:18.125 : Chapter 02
00:18:41.250 : Chapter 03
00:27:51.458 : Chapter 04
00:37:40.208 : Chapter 05
00:45:57.000 : Chapter 06
00:55:04.042 : Chapter 07
01:03:10.875 : Chapter 08
01:15:37.542 : Chapter 09
01:24:29.583 : Chapter 10
01:32:51.208 : Chapter 11
01:45:40.667 : Chapter 12

Знаете ли вы, что…

Оригинальное название фильма переводится как «Засуха».

Скриншоты:

-

[Цитировать]



Показать сообщения:    

Текущее время: 23-Май 15:03

Часовой пояс: UTC + 6


Вы не можете начинать темы
Вы не можете отвечать на сообщения
Вы не можете редактировать свои сообщения
Вы не можете удалять свои сообщения
Вы не можете голосовать в опросах
Вы не можете прикреплять файлы к сообщениям
Вы не можете скачивать файлы

!ВНИМАНИЕ!
Сайт не предоставляет электронные версии произведений, а занимается лишь коллекционированием и каталогизацией ссылок, присылаемых и публикуемых на форуме нашими читателями. Если вы являетесь правообладателем какого-либо представленного материала и не желаете, чтобы ссылка на него находилась в нашем каталоге, свяжитесь с нами, и мы незамедлительно удалим ее. Файлы для обмена на трекере предоставлены пользователями сайта, и администрация не несет ответственности за их содержание. Просьба не заливать файлы, защищенные авторскими правами, а также файлы нелегального содержания!