***Уважаемые пользователи и гости !!! Сайт переехал на новый домен Torrents-club.info. Просьба изменить ваши закладки! ***
 
[ Сегодня идет свободное скачивание без начисления Download ]


Статистика раздачи
Скачал: [ 1 ]
 
   
 
 
 
Лука / Luca- Год выхода: 2021
Страна: США
Студия: Pixar Animation Studios, Walt Disney Pictures
Жанр: Мультфильм, фэнтези, комедия, приключения, семейный
Продолжительность: 01:35:15
Перевод: Профессиональный (полное дублирование) | iTunes-Режиссер:
Энрико Касароса-В ролях:
Джейкоб Тремблей, Джек Дилан Грейзер, Саша Барон Коэн, Майя Рудольф, Джакомо Джианниотти, Джим Гэффиган, Сэнди Мартин, Эмма Берман, Франческа Фанти, Джино Д'Акампо, Марко Барричелли, Саверио Раймондо, Марина Массирони, Джузеппе Россо-О фильме:
Море, солнце, мопеды и охлаждающее джелато — так в одном из прибрежных городков итальянской Ривьеры проходят летние каникулы мальчика по имени Лука. В компании нового друга Альберто он проводит жаркие дни, наполненные удивительными событиями. Приключения Луки омрачает лишь то, что они с Альберто — монстры из морских глубин, на которых охотятся все рыбаки города.- -Качество: BDRemux 1080p
Формат: MKV
Видео: MPEG-4 AVC, 1920x1080, 26.8 Mbit/s, 23.976 fps
Аудио #01: 48 kHz, AC3, 5.1, 384 Kbps | iTunes | RUS |
Аудио #02: 48 kHz, TrueHD, 7.1, 6071 Kbps | Оригинал | ENG |
Аудио #03: 48 kHz, AC3, 5.1, 640 Kbps | Оригинал | ENG |
Субтитры: Русские (Forced, full), английские-

Скриншоты

MI

General
Unique ID : 195586158003112987588127180300832316654 (0x9324861A6AA441D645C301A9C2199CEE)
Complete name : F:VideoLuca.2021.BDREMUX.1080p.seleZen.mkv
Format : Matroska
Format version : Version 4
File size : 22.6 GiB
Duration : 1 h 35 min
Overall bit rate mode : Variable
Overall bit rate : 34.0 Mb/s
Movie name : Luca 2021 from seleZen
Encoded date : UTC 2021-09-02 21:15:27
Writing application : mkvmerge v59.0.0 ('Shining Star') 64-bit
Writing library : libebml v1.4.2 + libmatroska v1.6.4
Video
ID : 1
Format : AVC
Format/Info : Advanced Video Codec
Format profile : High@L4.1
Format settings : CABAC / 4 Ref Frames
Format settings, CABAC : Yes
Format settings, Reference : 4 frames
Codec ID : V_MPEG4/ISO/AVC
Duration : 1 h 35 min
Bit rate mode : Variable
Bit rate : 26.8 Mb/s
Maximum bit rate : 32.0 Mb/s
Width : 1 920 pixels
Height : 1 080 pixels
Display aspect ratio : 16:9
Frame rate mode : Constant
Frame rate : 23.976 (24000/1001) FPS
Color space : YUV
Chroma subsampling : 4:2:0
Bit depth : 8 bits
Scan type : Progressive
Bits/(Pixel*Frame) : 0.540
Stream size : 17.9 GiB (79%)
Language : English
Default : Yes
Forced : No
Audio #1
ID : 2
Format : AC-3
Format/Info : Audio Coding 3
Commercial name : Dolby Digital
Codec ID : A_AC3
Duration : 1 h 35 min
Bit rate mode : Constant
Bit rate : 384 kb/s
Channel(s) : 6 channels
Channel layout : L R C LFE Ls Rs
Sampling rate : 48.0 kHz
Frame rate : 31.250 FPS (1536 SPF)
Compression mode : Lossy
Stream size : 262 MiB (1%)
Title : iTunes
Language : Russian
Service kind : Complete Main
Default : Yes
Forced : Yes
Audio #2
ID : 3
Format : MLP FBA 16-ch
Format/Info : Meridian Lossless Packing FBA with 16-channel presentation
Commercial name : Dolby TrueHD with Dolby Atmos
Codec ID : A_TRUEHD
Duration : 1 h 35 min
Bit rate mode : Variable
Bit rate : 6 071 kb/s
Maximum bit rate : 5 985 kb/s
Channel(s) : 8 channels
Channel layout : L R C LFE Ls Rs Lb Rb
Sampling rate : 48.0 kHz
Frame rate : 1 200.000 FPS (40 SPF)
Compression mode : Lossless
Stream size : 4.04 GiB (18%)
Title : Original
Language : English
Default : No
Forced : No
Number of dynamic objects : 13
Bed channel count : 1 channel
Bed channel configuration : LFE
Audio #3
ID : 4
Format : AC-3
Format/Info : Audio Coding 3
Commercial name : Dolby Digital
Codec ID : A_AC3
Duration : 1 h 35 min
Bit rate mode : Constant
Bit rate : 640 kb/s
Channel(s) : 6 channels
Channel layout : L R C LFE Ls Rs
Sampling rate : 48.0 kHz
Frame rate : 31.250 FPS (1536 SPF)
Compression mode : Lossy
Stream size : 436 MiB (2%)
Language : English
Service kind : Complete Main
Default : No
Forced : No
Text #1
ID : 5
Format : UTF-8
Codec ID : S_TEXT/UTF8
Codec ID/Info : UTF-8 Plain Text
Duration : 1 h 20 min
Bit rate : 0 b/s
Count of elements : 6
Stream size : 87.0 Bytes (0%)
Title : Forced
Language : Russian
Default : Yes
Forced : Yes
Text #2
ID : 6
Format : UTF-8
Codec ID : S_TEXT/UTF8
Codec ID/Info : UTF-8 Plain Text
Duration : 1 h 33 min
Bit rate : 83 b/s
Count of elements : 1304
Stream size : 57.5 KiB (0%)
Title : Full
Language : Russian
Default : No
Forced : No
Text #3
ID : 7
Format : UTF-8
Codec ID : S_TEXT/UTF8
Codec ID/Info : UTF-8 Plain Text
Duration : 1 h 33 min
Bit rate : 58 b/s
Count of elements : 1548
Stream size : 39.9 KiB (0%)
Title : Full
Language : English
Default : No
Forced : No
Menu
00:00:00.000 : Prologue
00:02:27.898 : Meet Luca
00:06:27.220 : Family Lunch
00:08:29.884 : Meet Alberto
00:11:19.512 : World Above
00:14:35.291 : Alberto's Hideout
00:16:30.197 : Paranoid
00:17:07.735 : Best Friends
00:21:19.486 : Rooftop
00:23:31.994 : Busted
00:26:01.393 : Running Away
00:28:11.815 : Vespatown
00:32:55.515 : Meet Giulia
00:35:39.971 : Bike Test
00:37:29.372 : Massimo Dinner
00:41:38.204 : Parents Arrive
00:42:25.876 : Massimo Chores
00:45:04.118 : Wrong Kid
00:46:06.680 : Signing Up
00:48:53.639 : Close Call
00:51:00.098 : Soccer Mom
00:52:04.746 : Telescope
00:54:33.562 : Saturn Dream
00:56:18.834 : Vespa Gazing
00:58:30.340 : Race Training
01:00:07.520 : Spotted
01:00:43.598 : Wipeout
01:02:10.059 : Splash
01:04:51.929 : Without Alberto
01:06:49.088 : Reconciliation
01:09:33.836 : Race Begins
01:13:19.978 : Bike Race
01:16:47.477 : Finish Line
01:19:33.476 : Giulia Packing
01:20:53.723 : Parting Ways
01:24:34.944 : Credits
01:33:41.532 : In The Deep
Релиз:

[Цитировать]



Показать сообщения:    

Текущее время: 22-Май 14:27

Часовой пояс: UTC + 6


Вы не можете начинать темы
Вы не можете отвечать на сообщения
Вы не можете редактировать свои сообщения
Вы не можете удалять свои сообщения
Вы не можете голосовать в опросах
Вы не можете прикреплять файлы к сообщениям
Вы не можете скачивать файлы

!ВНИМАНИЕ!
Сайт не предоставляет электронные версии произведений, а занимается лишь коллекционированием и каталогизацией ссылок, присылаемых и публикуемых на форуме нашими читателями. Если вы являетесь правообладателем какого-либо представленного материала и не желаете, чтобы ссылка на него находилась в нашем каталоге, свяжитесь с нами, и мы незамедлительно удалим ее. Файлы для обмена на трекере предоставлены пользователями сайта, и администрация не несет ответственности за их содержание. Просьба не заливать файлы, защищенные авторскими правами, а также файлы нелегального содержания!