***Уважаемые пользователи и гости !!! Сайт переехал на новый домен Torrents-club.info. Просьба изменить ваши закладки! ***
 
[ Сегодня идет свободное скачивание без начисления Download ]


Статистика раздачи
Скачал: [ 2 ]
 
   
 
 
 
Информация о фильме
Название: Кома
Год выхода: 2020
Жанр: Фантастика, фэнтези, боевик, приключения
Режиссер: Никита Аргунов
В ролях: Риналь Мухаметов, Константин Лавроненко, Антон Пампушный, Любовь Аксёнова, Милош Бикович, Ростислав Гулбис, Полина Кузьминская.
О фильме:
После таинственной и страшной аварии молодой талантливый архитектор приходит в себя в причудливом мире. Этот мир соткан из воспоминаний людей, находящихся в коме. Как и человеческая память, он фрагментарен, хаотичен и непостоянен. Это и есть пространство КОМЫ, в котором реки, ледники и города могут умещаться в одной комнате, а любые законы физики – нарушаться. Герою предстоит выяснить, по каким законам существует это пространство, бороться за жизнь, встретить любовь, найти, наконец, выход в реальный мир и осознать его по-новому, поняв, что такое КОМА на самом деле.

Страна: Россия
Студия: «Марс Медиа», Большое кино, Fresh Film, Киностудия Кит
Продолжительность: 01:50:59
Перевод: Не требуется | Лицензия Blu-ray GER
Файл
Формат: Matroska
Качество: BDRip-AVC [Coma.2019.BDREMUX.1080p.seleZen]
Видео: 1156x484 at 24.00 fps, x264, ~2769 kbps, 0.206 bpp
Аудио: AC3, 6 ch, ~448 kbps - | Русский | -
***Релиз от: -=DoMiNo=-

M/I

x264 [info]: frame I:1204 Avg QP:17.36 size: 71832
x264 [info]: frame P:30374 Avg QP:18.98 size: 31553
x264 [info]: frame B:128069 Avg QP:21.42 size: 9822
x264 [info]: consecutive B-frames: 1.5% 1.2% 5.3% 13.7% 18.0% 41.4% 5.6% 1.8% 2.8% 1.6% 1.3% 0.5% 1.5% 2.3% 0.6% 0.3% 0.8%
General
Format : Matroska
Format version : Version 4
File size : 2.49 GiB
Duration : 1 h 50 min
Overall bit rate : 3 219 kb/s
Movie name : Кома.(2020).BDRip-AVC.[-=DoMiNo=-]
Encoded date : UTC 2020-04-08 06:20:12
Writing application : mkvmerge v45.0.0 ('Heaven in Pennies') 64-bit
Writing library : libebml v1.3.10 + libmatroska v1.5.2
Attachments : poster.jpg / poster 2.jpg
Video
ID : 1
Format : AVC
Format/Info : Advanced Video Codec
Format profile : High@L4.1
Format settings : CABAC / 14 Ref Frames
Format settings, CABAC : Yes
Format settings, Reference : 14 frames
Codec ID : V_MPEG4/ISO/AVC
Duration : 1 h 50 min
Bit rate : 2 769 kb/s
Width : 1 156 pixels
Height : 484 pixels
Display aspect ratio : 2.40:1
Frame rate mode : Constant
Frame rate : 24.000 FPS
Color space : YUV
Chroma subsampling : 4:2:0
Bit depth : 8 bits
Scan type : Progressive
Bits/(Pixel*Frame) : 0.206
Stream size : 2.14 GiB (86%)
Title : RIP_BY_-=DoMiNo=-
Writing library : x264 core 159 r2991 1771b55
Encoding settings : cabac=1 / ref=14 / deblock=1:-2:-2 / analyse=0x3:0x133 / me=umh / subme=10 / psy=1 / psy_rd=1.00:0.00 / mixed_ref=1 / me_range=32 / chroma_me=1 / trellis=2 / 8x8dct=1 / cqm=0 / deadzone=21,11 / fast_pskip=1 / chroma_qp_offset=-2 / threads=6 / lookahead_threads=1 / sliced_threads=0 / nr=0 / decimate=1 / interlaced=0 / bluray_compat=0 / constrained_intra=0 / bframes=16 / b_pyramid=2 / b_adapt=2 / b_bias=0 / direct=1 / weightb=1 / open_gop=0 / weightp=2 / keyint=240 / keyint_min=23 / scenecut=40 / intra_refresh=0 / rc_lookahead=60 / rc=crf / mbtree=0 / crf=18.0 / qcomp=0.60 / qpmin=0 / qpmax=69 / qpstep=4 / vbv_maxrate=50000 / vbv_bufsize=62500 / crf_max=0.0 / nal_hrd=none / filler=0 / ip_ratio=1.40 / pb_ratio=1.30 / aq=2:0.80
Language : Russian
Default : Yes
Forced : No
Audio
ID : 2
Format : AC-3
Format/Info : Audio Coding 3
Commercial name : Dolby Digital
Codec ID : A_AC3
Duration : 1 h 50 min
Bit rate mode : Constant
Bit rate : 448 kb/s
Channel(s) : 6 channels
Channel layout : L R C LFE Ls Rs
Sampling rate : 48.0 kHz
Frame rate : 31.250 FPS (1536 SPF)
Compression mode : Lossy
Stream size : 355 MiB (14%)
Title : Лицензия Blu-ray GER
Language : Russian
Service kind : Complete Main
Default : Yes
Forced : No
Menu
00:00:00.000 : de:Глава 01
00:12:43.417 : de:Глава 02
00:18:44.667 : de:Глава 03
00:27:36.375 : de:Глава 04
00:34:27.542 : de:Глава 05
00:44:20.375 : de:Глава 06
00:49:26.500 : de:Глава 07
00:57:33.375 : de:Глава 08
01:05:32.167 : de:Глава 09
01:13:06.083 : de:Глава 10
01:23:10.167 : de:Глава 11
01:29:08.333 : de:Глава 12
01:34:09.667 : de:Глава 13
01:40:00.750 : de:Глава 14
01:43:39.958 : de:Глава 15
01:46:51.042 : de:Глава 16

Скриншоты

[Цитировать]



Показать сообщения:    

Текущее время: 23-Май 14:25

Часовой пояс: UTC + 6


Вы не можете начинать темы
Вы не можете отвечать на сообщения
Вы не можете редактировать свои сообщения
Вы не можете удалять свои сообщения
Вы не можете голосовать в опросах
Вы не можете прикреплять файлы к сообщениям
Вы не можете скачивать файлы

!ВНИМАНИЕ!
Сайт не предоставляет электронные версии произведений, а занимается лишь коллекционированием и каталогизацией ссылок, присылаемых и публикуемых на форуме нашими читателями. Если вы являетесь правообладателем какого-либо представленного материала и не желаете, чтобы ссылка на него находилась в нашем каталоге, свяжитесь с нами, и мы незамедлительно удалим ее. Файлы для обмена на трекере предоставлены пользователями сайта, и администрация не несет ответственности за их содержание. Просьба не заливать файлы, защищенные авторскими правами, а также файлы нелегального содержания!