***Уважаемые пользователи и гости !!! Сайт переехал на новый домен Torrents-club.info. Просьба изменить ваши закладки! ***
 
[ Сегодня идет свободное скачивание без начисления Download ]


Статистика раздачи
Скачал: [ 2 ]
 
   
 
 
 
Демоник / Demonic
- Год выпуска: 2021
Жанр: Ужасы
Выпущено: Канада, AGC Studios, Stabiliti Studios
Продолжительность: 01:44:35
Режиссер: Нил Бломкамп
В ролях:
Андреа Агур, Натали Болтт, Терри Чен, Крис Мартин, Карли Поуп, Майкл Роджерс
О фильме:
В современном мире орден экзорцистов сражается с демонами с помощью технологий, а не молитв. Благодаря устройству, способному создавать проекции в сознании других людей, служители церкви отлавливают нечисть, которая таится в душах людей. Карли придется заглянуть в разум своей матери, обвиняемой в убийстве более 20 человек, чтобы отыскать истинную причину ее жестокости.

Качество: BDRip 1080p
Видео: MPEG-4 AVC, 21.1 Мбит/с, 1920x960
Аудио: Русский (AC3, 6 ch, 384 Кбит/с), английский (AC3, 6 ch, 640 Кбит/с)
Перевод: Дублированный
Субтитры: Английские

MediaInfo:

Complete name                            : Demonik.2021.BDRip.1080p.ELEKTRI4KA.UNIONGANG.mkv
Format                                   : Matroska
Format version                           : Version 4
File size                                : 16.2 GiB
Duration                                 : 1 h 44 min
Overall bit rate                         : 22.2 Mb/s
Movie name                               : Demonik.2021.BDRip.1080p.ELEKTRI4KA.UNIONGANG.
Encoded date                             : UTC 2021-11-08 18:33:27
Writing application                      : mkvmerge v8.3.0 ('Over the Horizon') 32bit
Writing library                          : libebml v1.3.1 + libmatroska v1.4.2
Video
ID                                       : 1
Format                                   : AVC
Format/Info                              : Advanced Video Codec
Format profile                           : High@L4.1
Format settings                          : CABAC / 4 Ref Frames
Format settings, CABAC                   : Yes
Format settings, Reference frames        : 4 frames
Codec ID                                 : V_MPEG4/ISO/AVC
Duration                                 : 1 h 44 min
Bit rate                                 : 21.1 Mb/s
Width                                    : 1 920 pixels
Height                                   : 960 pixels
Display aspect ratio                     : 2.000
Frame rate mode                          : Constant
Frame rate                               : 23.976 (24000/1001) FPS
Color space                              : YUV
Chroma subsampling                       : 4:2:0
Bit depth                                : 8 bits
Scan type                                : Progressive
Bits/(Pixel*Frame)                       : 0.478
Stream size                              : 15.4 GiB (95%)
Writing library                          : x264 core 163 r3059+79M ~ Encoded by Mocunaman in Portugal
Encoding settings                        : cabac=1 / ref=4 / deblock=1:-3:-3 / analyse=0x3:0x113 / me=umh / subme=11 / psy=1 / fade_compensate=0.00 / psy_rd=1.05:0.00 / mixed_ref=1 / me_range=48 / chroma_me=1 / trellis=2 / 8x8dct=1 / cqm=0 / deadzone=21,11 / fast_pskip=0 / chroma_qp_offset=-2 / threads=30 / lookahead_threads=7 / sliced_threads=0 / nr=0 / decimate=0 / interlaced=0 / bluray_compat=0 / constrained_intra=0 / fgo=0 / bframes=14 / b_pyramid=2 / b_adapt=2 / b_bias=0 / direct=3 / weightb=1 / open_gop=0 / weightp=2 / keyint=250 / keyint_min=23 / scenecut=40 / intra_refresh=0 / rc_lookahead=60 / rc=crf / mbtree=0 / crf=19.6000 / qcomp=0.60 / qpmin=0:0:0 / qpmax=69:69:69 / qpstep=4 / vbv_maxrate=62500 / vbv_bufsize=78125 / crf_max=0.0 / nal_hrd=none / filler=0 / ip_ratio=1.30 / pb_ratio=1.20 / aq=3:0.75 / aq-sensitivity=10.00 / aq-factor=1.00:1.00:1.00 / aq2=0 / aq3=0 / zones=0,1662,crf=17.6/2910,4729,crf=18.6/10432,11783,crf=18.6/15535,18776,crf=18.6/28568,36934,crf=18.6/41165,43571,crf=18.6/45563,46979,crf=18.6/47460,52668,crf=18.6/56478,57721,crf=18.6,aq-strength=0.70/57930,58155,crf=18.6,aq-strength=0.70/58427,60425,crf=17.9,aq-strength=0.70/67284,72432,crf=19.1/73118,115065,crf=18.6/115596,140412,crf=18.1/143676,150460,crf=21
Language                                 : English
Default                                  : Yes
Forced                                   : No
Color range                              : Limited
Color primaries                          : BT.709
Transfer characteristics                 : BT.709
Matrix coefficients                      : BT.709
Audio #1
ID                                       : 2
Format                                   : AC-3
Format/Info                              : Audio Coding 3
Commercial name                          : Dolby Digital
Codec ID                                 : A_AC3
Duration                                 : 1 h 44 min
Bit rate mode                            : Constant
Bit rate                                 : 384 kb/s
Channel(s)                               : 6 channels
Channel layout                           : L R C LFE Ls Rs
Sampling rate                            : 48.0 kHz
Frame rate                               : 31.250 FPS (1536 SPF)
Compression mode                         : Lossy
Stream size                              : 287 MiB (2%)
Title                                    : DUB (iTunes)
Language                                 : Russian
Service kind                             : Complete Main
Default                                  : Yes
Forced                                   : Yes
Audio #2
ID                                       : 3
Format                                   : AC-3
Format/Info                              : Audio Coding 3
Commercial name                          : Dolby Digital
Codec ID                                 : A_AC3
Duration                                 : 1 h 44 min
Bit rate mode                            : Constant
Bit rate                                 : 640 kb/s
Channel(s)                               : 6 channels
Channel layout                           : L R C LFE Ls Rs
Sampling rate                            : 48.0 kHz
Frame rate                               : 31.250 FPS (1536 SPF)
Compression mode                         : Lossy
Stream size                              : 479 MiB (3%)
Title                                    : AC3 DD5.1 640Kbs
Language                                 : English
Service kind                             : Complete Main
Default                                  : No
Forced                                   : No
Text #1
ID                                       : 4
Format                                   : UTF-8
Codec ID                                 : S_TEXT/UTF8
Codec ID/Info                            : UTF-8 Plain Text
Duration                                 : 1 h 37 min
Bit rate                                 : 40 b/s
Count of elements                        : 1027
Stream size                              : 29.0 KiB (0%)
Title                                    : Full
Language                                 : English
Default                                  : No
Forced                                   : No
Text #2
ID                                       : 5
Format                                   : UTF-8
Codec ID                                 : S_TEXT/UTF8
Codec ID/Info                            : UTF-8 Plain Text
Duration                                 : 1 h 43 min
Bit rate                                 : 46 b/s
Count of elements                        : 1254
Stream size                              : 35.5 KiB (0%)
Title                                    : SDH
Language                                 : English
Default                                  : No
Forced                                   : No
Menu
00:00:00.000                             : en:Chapter 01
00:08:11.491                             : en:Chapter 02
00:17:20.289                             : en:Chapter 03
00:25:40.497                             : en:Chapter 04
00:31:41.650                             : en:Chapter 05
00:43:10.171                             : en:Chapter 06
00:50:49.630                             : en:Chapter 07
01:00:14.903                             : en:Chapter 08
01:12:10.785                             : en:Chapter 09
01:21:21.877                             : en:Chapter 10
01:31:06.920                             : en:Chapter 11
01:39:56.282                             : en:Chapter 12

Скриншоты

-

[Цитировать]



Показать сообщения:    

Текущее время: 23-Май 13:43

Часовой пояс: UTC + 6


Вы не можете начинать темы
Вы не можете отвечать на сообщения
Вы не можете редактировать свои сообщения
Вы не можете удалять свои сообщения
Вы не можете голосовать в опросах
Вы не можете прикреплять файлы к сообщениям
Вы не можете скачивать файлы

!ВНИМАНИЕ!
Сайт не предоставляет электронные версии произведений, а занимается лишь коллекционированием и каталогизацией ссылок, присылаемых и публикуемых на форуме нашими читателями. Если вы являетесь правообладателем какого-либо представленного материала и не желаете, чтобы ссылка на него находилась в нашем каталоге, свяжитесь с нами, и мы незамедлительно удалим ее. Файлы для обмена на трекере предоставлены пользователями сайта, и администрация не несет ответственности за их содержание. Просьба не заливать файлы, защищенные авторскими правами, а также файлы нелегального содержания!