***Уважаемые пользователи и гости !!! Сайт переехал на новый домен Torrents-club.info. Просьба изменить ваши закладки! ***
 
[ Сегодня идет свободное скачивание без начисления Download ]


Статистика раздачи
Скачал: [ 2 ]
 
   
 
 
 
Королевство драконов / Dragon Kingdom
- Год выпуска: 2018
Жанр: Ужасы, фэнтези, боевик
Выпущено: Великобритания, Grass Temple Films,High Fliers Films,Hollywood Vision
Продолжительность: 01:25:38
Режиссер: Саймон Уэллс
В ролях:
Росс О'Хеннесси, Бен Лойд-Холмс, Сильвио Шимач, Зара Питиан, Андреа Василиу, Адриан Буше, Кейт Мари Дэвис, Ли Куньцзюэ, Джон-Пол Гейтс, Ребекка Дайсон-Смит
О фильме:
Принц Фавиан пытается тайно узурпировать власть и призывает на службу армию живых мертвецов и драконов. Однако, его сестре Элизабет чудом удаётся выжить во время разрушения замка. Теперь она должна с помощью двух преданных рыцарей и двух которианских воительниц пробраться на другой конец страны, чтобы предупредить отца и спасти королевство. Но, для этого, им придётся пройти через Тёмное королевство под властью таинственного Магистра.

Качество: WEB-DL 1080p
Видео: MPEG-4 AVC, 4775 Кбит/с, 1920x800
Аудио: Русский, украинский (AC3, 6 ch, 384 Кбит/с)
Перевод: Профессиональный многоголосый

MediaInfo:

Complete name                            : Korolevstvo.drakonov.2018.WEB-DL.1080p.ELEKTRI4KA.UNIONGANG.mkv
Format                                   : Matroska
Format version                           : Version 4
File size                                : 3.32 GiB
Duration                                 : 1 h 25 min
Overall bit rate                         : 5 545 kb/s
Movie name                               : Korolevstvo drakonov.2018.WEB-DL.1080p.ELEKTRI4KA.UNIONGANG.
Encoded date                             : UTC 2021-11-13 21:42:09
Writing application                      : mkvmerge v8.3.0 ('Over the Horizon') 32bit
Writing library                          : libebml v1.3.1 + libmatroska v1.4.2
Video
ID                                       : 1
Format                                   : AVC
Format/Info                              : Advanced Video Codec
Format profile                           : High@L4
Format settings                          : CABAC / 3 Ref Frames
Format settings, CABAC                   : Yes
Format settings, Reference frames        : 3 frames
Codec ID                                 : V_MPEG4/ISO/AVC
Duration                                 : 1 h 25 min
Bit rate                                 : 4 775 kb/s
Width                                    : 1 920 pixels
Height                                   : 800 pixels
Display aspect ratio                     : 2.40:1
Frame rate mode                          : Constant
Frame rate                               : 25.000 FPS
Color space                              : YUV
Chroma subsampling                       : 4:2:0
Bit depth                                : 8 bits
Scan type                                : Progressive
Bits/(Pixel*Frame)                       : 0.124
Stream size                              : 2.86 GiB (86%)
Default                                  : Yes
Forced                                   : No
Audio #1
ID                                       : 2
Format                                   : AC-3
Format/Info                              : Audio Coding 3
Commercial name                          : Dolby Digital
Codec ID                                 : A_AC3
Duration                                 : 1 h 25 min
Bit rate mode                            : Constant
Bit rate                                 : 384 kb/s
Channel(s)                               : 6 channels
Channel layout                           : L R C LFE Ls Rs
Sampling rate                            : 48.0 kHz
Frame rate                               : 31.250 FPS (1536 SPF)
Compression mode                         : Lossy
Stream size                              : 235 MiB (7%)
Title                                    : MVO (IVI)
Language                                 : Russian
Service kind                             : Complete Main
Default                                  : Yes
Forced                                   : Yes
Audio #2
ID                                       : 3
Format                                   : AC-3
Format/Info                              : Audio Coding 3
Commercial name                          : Dolby Digital
Codec ID                                 : A_AC3
Duration                                 : 1 h 25 min
Bit rate mode                            : Constant
Bit rate                                 : 384 kb/s
Channel(s)                               : 6 channels
Channel layout                           : L R C LFE Ls Rs
Sampling rate                            : 48.0 kHz
Frame rate                               : 31.250 FPS (1536 SPF)
Compression mode                         : Lossy
Stream size                              : 235 MiB (7%)
Title                                    : MVO (IVI)
Language                                 : Ukrainian
Service kind                             : Complete Main
Default                                  : No
Forced                                   : No

Скриншоты

-

[Цитировать]



Показать сообщения:    

Текущее время: 23-Май 13:48

Часовой пояс: UTC + 6


Вы не можете начинать темы
Вы не можете отвечать на сообщения
Вы не можете редактировать свои сообщения
Вы не можете удалять свои сообщения
Вы не можете голосовать в опросах
Вы не можете прикреплять файлы к сообщениям
Вы не можете скачивать файлы

!ВНИМАНИЕ!
Сайт не предоставляет электронные версии произведений, а занимается лишь коллекционированием и каталогизацией ссылок, присылаемых и публикуемых на форуме нашими читателями. Если вы являетесь правообладателем какого-либо представленного материала и не желаете, чтобы ссылка на него находилась в нашем каталоге, свяжитесь с нами, и мы незамедлительно удалим ее. Файлы для обмена на трекере предоставлены пользователями сайта, и администрация не несет ответственности за их содержание. Просьба не заливать файлы, защищенные авторскими правами, а также файлы нелегального содержания!