***Уважаемые пользователи и гости !!! Сайт переехал на новый домен Torrents-club.info. Просьба изменить ваши закладки! ***
 
[ Сегодня идет свободное скачивание без начисления Download ]


Статистика раздачи
Скачал: [ 1 ]
 
   
 
 
 
Проклятый Хеллоуин / Bad Candy
- Год выпуска: 2020
Жанр: Ужасы
Выпущено: США, Black Triad Entertainment Group, Digital Thunderdome
Продолжительность: 01:43:53
Режиссер: Скотт Хансен, Дезри Коннелл
В ролях:
Зак Гэллиган, Кори Тейлор, Бриттни Рэй, Хейли Лири, Кевин Уэйн, Александра Луккези, Одри Уильямс, Майкл Аарон Миллиган, Кеннет Трухильо, Тара ДиПетрилло
О фильме:
Несколько хэллоуинских историй, действие которых разворачивается в Нью Сейлеме. В рамках ежегодного шоу Psychotronic FM два диджея Чилли Билли и Пол представляют ужасающие городские легенды прошлых лет. Понятно, что для каждого жителя города уготован несчастливый конец, но есть ли шанс на спасение хоть у кого-то?

Качество: WEB-DL 1080p
Видео: MPEG-4 AVC, 6635 Кбит/с, 1912x808
Аудио: Русский, английский (AC3, 6 ch, 384 Кбит/с)
Перевод: Дублированный
Субтитры: Английские

MediaInfo:

Complete name                            : Proklyatyiy.Hellouin.2020.WEB-DL.1080p.ELEKTRI4KA.UNIONGANG.mkv
Format                                   : Matroska
Format version                           : Version 4
File size                                : 5.37 GiB
Duration                                 : 1 h 43 min
Overall bit rate                         : 7 405 kb/s
Movie name                               : Proklyatyiy.Hellouin.2020.WEB-DL.1080p.ELEKTRI4KA.UNIONGANG.
Encoded date                             : UTC 2021-11-18 21:21:35
Writing application                      : mkvmerge v8.3.0 ('Over the Horizon') 32bit
Writing library                          : libebml v1.3.1 + libmatroska v1.4.2
Video
ID                                       : 1
Format                                   : AVC
Format/Info                              : Advanced Video Codec
Format profile                           : High@L4
Format settings                          : CABAC / 5 Ref Frames
Format settings, CABAC                   : Yes
Format settings, Reference frames        : 5 frames
Codec ID                                 : V_MPEG4/ISO/AVC
Duration                                 : 1 h 43 min
Bit rate                                 : 6 635 kb/s
Width                                    : 1 912 pixels
Height                                   : 808 pixels
Display aspect ratio                     : 2.35:1
Frame rate mode                          : Constant
Frame rate                               : 23.976 (24000/1001) FPS
Color space                              : YUV
Chroma subsampling                       : 4:2:0
Bit depth                                : 8 bits
Scan type                                : Progressive
Bits/(Pixel*Frame)                       : 0.179
Stream size                              : 4.81 GiB (90%)
Default                                  : Yes
Forced                                   : No
Color range                              : Limited
Color primaries                          : BT.709
Transfer characteristics                 : BT.709
Matrix coefficients                      : BT.709
Audio #1
ID                                       : 2
Format                                   : AC-3
Format/Info                              : Audio Coding 3
Commercial name                          : Dolby Digital
Codec ID                                 : A_AC3
Duration                                 : 1 h 43 min
Bit rate mode                            : Constant
Bit rate                                 : 384 kb/s
Channel(s)                               : 6 channels
Channel layout                           : L R C LFE Ls Rs
Sampling rate                            : 48.0 kHz
Frame rate                               : 31.250 FPS (1536 SPF)
Compression mode                         : Lossy
Stream size                              : 285 MiB (5%)
Title                                    : DUB (iTunes)
Language                                 : Russian
Service kind                             : Complete Main
Default                                  : Yes
Forced                                   : No
Audio #2
ID                                       : 3
Format                                   : AC-3
Format/Info                              : Audio Coding 3
Commercial name                          : Dolby Digital
Codec ID                                 : A_AC3
Duration                                 : 1 h 43 min
Bit rate mode                            : Constant
Bit rate                                 : 384 kb/s
Channel(s)                               : 6 channels
Channel layout                           : L R C LFE Ls Rs
Sampling rate                            : 48.0 kHz
Frame rate                               : 31.250 FPS (1536 SPF)
Compression mode                         : Lossy
Stream size                              : 285 MiB (5%)
Title                                    : Original
Language                                 : English
Service kind                             : Complete Main
Default                                  : No
Forced                                   : No
Text #1
ID                                       : 4
Format                                   : UTF-8
Codec ID                                 : S_TEXT/UTF8
Codec ID/Info                            : UTF-8 Plain Text
Duration                                 : 1 h 41 min
Bit rate                                 : 38 b/s
Count of elements                        : 1104
Stream size                              : 28.3 KiB (0%)
Language                                 : English
Default                                  : No
Forced                                   : No
Text #2
ID                                       : 5
Format                                   : UTF-8
Codec ID                                 : S_TEXT/UTF8
Codec ID/Info                            : UTF-8 Plain Text
Duration                                 : 1 h 43 min
Bit rate                                 : 42 b/s
Count of elements                        : 1318
Stream size                              : 32.4 KiB (0%)
Title                                    : SDH
Language                                 : English
Default                                  : No
Forced                                   : No

Скриншоты

-

[Цитировать]



Показать сообщения:    

Текущее время: 23-Май 14:15

Часовой пояс: UTC + 6


Вы не можете начинать темы
Вы не можете отвечать на сообщения
Вы не можете редактировать свои сообщения
Вы не можете удалять свои сообщения
Вы не можете голосовать в опросах
Вы не можете прикреплять файлы к сообщениям
Вы не можете скачивать файлы

!ВНИМАНИЕ!
Сайт не предоставляет электронные версии произведений, а занимается лишь коллекционированием и каталогизацией ссылок, присылаемых и публикуемых на форуме нашими читателями. Если вы являетесь правообладателем какого-либо представленного материала и не желаете, чтобы ссылка на него находилась в нашем каталоге, свяжитесь с нами, и мы незамедлительно удалим ее. Файлы для обмена на трекере предоставлены пользователями сайта, и администрация не несет ответственности за их содержание. Просьба не заливать файлы, защищенные авторскими правами, а также файлы нелегального содержания!