***Уважаемые пользователи и гости !!! Сайт переехал на новый домен Torrents-club.info. Просьба изменить ваши закладки! ***
 
[ Сегодня идет свободное скачивание без начисления Download ]


Статистика раздачи
Скачал: [ 2 ]
 
   
 
 
 
Пончары. Глобальное закругление / Extinct
- Год выпуска: 2021
Жанр: Мультфильм, приключения, комедия
Выпущено: США, Канада, Китай, China Lion Entertainment Production, Cinesite Animation, HB Wink Animation
Продолжительность: 01:24:09
Режиссер: Дэвид Силверман, Рэймонд С. Перси
В ролях:
Адам Дивайн, Рэйчел Блум, Кен Жонг, Зази Битц, Джим Джефферис, Кэтрин О Хара, Регги Уоттс, Алекс Борштейн, Джулия Чан, Стив Аоки
О фильме:
Пончары – милые, уморительные создания. Круглые как пончики и пушистые как хомячки. Но когда двух из них вдруг затягивает петля времени, выясняется, что в будущем пончары – музейные экспонаты наряду с динозаврами. Нужно срочно изменить ход истории и для этого они прокатятся по всем эпохам. Им всё в новинку и всё нипочём: хоть пещерные люди, хоть квадрокоптеры… А значит, впереди округлительные приключения!

Качество: BDRip 1080p
Видео: MPEG-4 AVC, 8000 Кбит/с, 1920x1036
Аудио: Русский, английский (AC3, 6 ch, 448 Кбит/с)
Перевод: Дублированный - CPI Films | Кинопоиск HD
Субтитры: Русские, английские

MediaInfo:

Общее
Уникальный идентификатор                 : 171211554196027637599336353882043195662 (0x80CE255A09BA0976A2A9CD58941E210E)
Полное имя                               : Extinct.2021.1080p.BluRay.DD.5.1.x264.MegaPeer.mkv
Формат                                   : Matroska
Версия формата                           : Version 4
Размер файла                             : 5,23 Гбайт
Продолжительность                        : 1 ч. 24 м.
Общий поток                              : 8 891 Кбит/сек
Название фильма                          : Пончары. Глобальное закругление / Extinct (2021) от MegaPeer
Дата кодирования                         : UTC 2021-11-24 15:53:42
Программа кодирования                    : mkvmerge v15.0.0 ('Duel with the Devil') 64-bit
Библиотека кодирования                   : libebml v1.3.5 + libmatroska v1.4.5
Обложка                                  : Yes
Attachments                              : cover.jpg
Видео
Идентификатор                            : 1
Формат                                   : AVC
Формат/Информация                        : Advanced Video Codec
Профиль формата                          : High@L4.1
Настройки формата                        : CABAC / 4 Ref Frames
Параметр CABAC формата                   : Да
Параметр RefFrames формата               : 4 кадра
Идентификатор кодека                     : V_MPEG4/ISO/AVC
Продолжительность                        : 1 ч. 24 м.
Битрейт                                  : 8 000 Кбит/сек
Ширина                                   : 1 920 пикселей
Высота                                   : 1 036 пикселей
Соотношение сторон                       : 1,85:1
Режим частоты кадров                     : Постоянный
Частота кадров                           : 24,000 кадра/сек
Цветовое пространство                    : YUV
Субдискретизация насыщенности            : 4:2:0
Битовая глубина                          : 8 бит
Тип развёртки                            : Прогрессивная
Бит/(Пиксели*Кадры)                      : 0.168
Размер потока                            : 4,70 Гбайт (90%)
Заголовок                                : stillet@MegaPeer
Библиотека кодирования                   : x264 core 161 r3018 db0d417
Настройки программы                      : cabac=1 / ref=4 / deblock=1:-3:-3 / analyse=0x3:0x113 / me=umh / subme=10 / psy=1 / psy_rd=1.00:0.00 / mixed_ref=1 / me_range=48 / chroma_me=1 / trellis=2 / 8x8dct=1 / cqm=0 / deadzone=21,11 / fast_pskip=0 / chroma_qp_offset=-2 / threads=24 / lookahead_threads=6 / sliced_threads=0 / nr=0 / decimate=0 / interlaced=0 / bluray_compat=0 / constrained_intra=0 / bframes=10 / b_pyramid=2 / b_adapt=2 / b_bias=0 / direct=3 / weightb=1 / open_gop=0 / weightp=2 / keyint=240 / keyint_min=24 / scenecut=40 / intra_refresh=0 / rc_lookahead=40 / rc=2pass / mbtree=0 / bitrate=8000 / ratetol=1.0 / qcomp=0.60 / qpmin=0 / qpmax=69 / qpstep=4 / cplxblur=20.0 / qblur=0.5 / vbv_maxrate=50000 / vbv_bufsize=62500 / nal_hrd=none / filler=0 / ip_ratio=1.40 / pb_ratio=1.30 / aq=1:1.10
Язык                                     : English
Default                                  : Да
Forced                                   : Нет
Аудио #1
Идентификатор                            : 2
Формат                                   : AC-3
Формат/Информация                        : Audio Coding 3
Коммерческое название                    : Dolby Digital
Идентификатор кодека                     : A_AC3
Продолжительность                        : 1 ч. 24 м.
Вид битрейта                             : Постоянный
Битрейт                                  : 448 Кбит/сек
Каналы                                   : 6 каналов
Channel layout                           : L R C LFE Ls Rs
Частота                                  : 48,0 КГц
Частота кадров                           : 31,250 кадров/сек (1536 SPF)
Метод сжатия                             : С потерями
Размер потока                            : 270 Мбайт (5%)
Заголовок                                : DUB | CPI Films | Кинопоиск HD
Язык                                     : Russian
Service kind                             : Complete Main
Default                                  : Да
Forced                                   : Нет
Аудио #2
Идентификатор                            : 3
Формат                                   : AC-3
Формат/Информация                        : Audio Coding 3
Коммерческое название                    : Dolby Digital
Идентификатор кодека                     : A_AC3
Продолжительность                        : 1 ч. 24 м.
Вид битрейта                             : Постоянный
Битрейт                                  : 448 Кбит/сек
Каналы                                   : 6 каналов
Channel layout                           : L R C LFE Ls Rs
Частота                                  : 48,0 КГц
Частота кадров                           : 31,250 кадров/сек (1536 SPF)
Метод сжатия                             : С потерями
Размер потока                            : 270 Мбайт (5%)
Язык                                     : English
Service kind                             : Complete Main
Default                                  : Нет
Forced                                   : Нет
Текст #1
Идентификатор                            : 4
Формат                                   : UTF-8
Идентификатор кодека                     : S_TEXT/UTF8
Идентификатор кодека/Информация          : UTF-8 Plain Text
Продолжительность                        : 1 ч. 18 м.
Битрейт                                  : 2 бит/сек
Count of elements                        : 24
Размер потока                            : 1,70 Кбайт (0%)
Заголовок                                : Forced
Язык                                     : Russian
Default                                  : Да
Forced                                   : Нет
Текст #2
Идентификатор                            : 5
Формат                                   : UTF-8
Идентификатор кодека                     : S_TEXT/UTF8
Идентификатор кодека/Информация          : UTF-8 Plain Text
Продолжительность                        : 1 ч. 20 м.
Битрейт                                  : 93 бит/сек
Count of elements                        : 1146
Размер потока                            : 55,6 Кбайт (0%)
Заголовок                                : Full
Язык                                     : Russian
Default                                  : Нет
Forced                                   : Нет
Текст #3
Идентификатор                            : 6
Формат                                   : UTF-8
Идентификатор кодека                     : S_TEXT/UTF8
Идентификатор кодека/Информация          : UTF-8 Plain Text
Продолжительность                        : 1 ч. 21 м.
Битрейт                                  : 67 бит/сек
Count of elements                        : 1170
Размер потока                            : 40,2 Кбайт (0%)
Заголовок                                : Full
Язык                                     : English
Default                                  : Нет
Forced                                   : Нет
Меню
00:00:00.000                             : en:Chapter 01
00:15:43.000                             : en:Chapter 02
00:30:47.000                             : en:Chapter 03
00:43:49.000                             : en:Chapter 04
00:59:09.000                             : en:Chapter 05
01:12:11.000                             : en:Chapter 06

Скриншоты


-

[Цитировать]



Показать сообщения:    

Текущее время: 22-Май 13:43

Часовой пояс: UTC + 6


Вы не можете начинать темы
Вы не можете отвечать на сообщения
Вы не можете редактировать свои сообщения
Вы не можете удалять свои сообщения
Вы не можете голосовать в опросах
Вы не можете прикреплять файлы к сообщениям
Вы не можете скачивать файлы

!ВНИМАНИЕ!
Сайт не предоставляет электронные версии произведений, а занимается лишь коллекционированием и каталогизацией ссылок, присылаемых и публикуемых на форуме нашими читателями. Если вы являетесь правообладателем какого-либо представленного материала и не желаете, чтобы ссылка на него находилась в нашем каталоге, свяжитесь с нами, и мы незамедлительно удалим ее. Файлы для обмена на трекере предоставлены пользователями сайта, и администрация не несет ответственности за их содержание. Просьба не заливать файлы, защищенные авторскими правами, а также файлы нелегального содержания!