***Уважаемые пользователи и гости !!! Сайт переехал на новый домен Torrents-club.info. Просьба изменить ваши закладки! ***
 
[ Сегодня идет свободное скачивание без начисления Download ]


Статистика раздачи
Скачал: [ 2 ]
 
   
 
 
 
Не время умирать / No Time to Die
- Год выпуска: 2021
Жанр: Боевик, триллер, приключения
Выпущено: Великобритания, США, Metro-Goldwyn-Mayer (MGM), Universal Pictures, Eon Productions
Продолжительность: 02:43:23
Режиссер: Кэри Дзёдзи Фукунага
В ролях:
Дэниэл Крэйг, Рами Малек, Леа Сейду, Лашана Линч, Бен Уишоу, Наоми Харрис, Билли Магнуссен, Ана де Армас, Кристоф Вальц, Рэйф Файнс
О фильме:
Джеймс Бонд оставил оперативную службу и наслаждается спокойной жизнью на Ямайке. Все меняется, когда на острове появляется его старый друг Феликс Лейтер из ЦРУ с просьбой о помощи. Миссия по спасению похищенного ученого оказывается опаснее, чем предполагалось изначально. Бонд попадает в ловушку к таинственному злодею, вооруженному опасным технологическим оружием.

Качество: BDRip 1080p
Видео: MPEG-4 AVC, 17.1 Mбит/с, 1920x804
Аудио: Русский (AC3, 6 ch, 384 Кбит/с), английский (AC3, 6 ch, 640 Кбит/с)
Перевод: Дублированный
Субтитры: Русские, английские

MediaInfo:

General
Unique ID                   : 33885521515934237460221910484553929218 (0x197E1D32D4C5480E68AB9F4733959202)
Complete name               : D:\Video\No.Time.to.Die.2021.BDRip.1080p.seleZen.mkv
Format                      : Matroska
Format version              : Version 4
File size                   : 20.7 GiB
Duration                    : 2 h 43 min
Overall bit rate            : 18.1 Mb/s
Movie name                  : No Time to Die 2021 from seleZen
Encoded date                : UTC 2021-12-08 19:16:13
Writing application         : mkvmerge v59.0.0 ('Shining Star') 64-bit
Writing library             : libebml v1.4.2 + libmatroska v1.6.4
Video
ID                          : 1
Format                      : AVC
Format/Info                 : Advanced Video Codec
Format profile              : High@L4.1
Format settings             : CABAC / 5 Ref Frames
Format settings, CABAC      : Yes
Format settings, Reference  : 5 frames
Codec ID                    : V_MPEG4/ISO/AVC
Duration                    : 2 h 43 min
Bit rate                    : 17.1 Mb/s
Width                       : 1 920 pixels
Height                      : 804 pixels
Display aspect ratio        : 2.40:1
Frame rate mode             : Constant
Frame rate                  : 23.976 (24000/1001) FPS
Color space                 : YUV
Chroma subsampling          : 4:2:0
Bit depth                   : 8 bits
Scan type                   : Progressive
Bits/(Pixel*Frame)          : 0.463
Stream size                 : 19.5 GiB (94%)
Title                       : MTeam
Writing library             : x264 core 157 r2938 2b00a84 TnP@MTeam Mod
Encoding settings           : cabac=1 / ref=5 / deblock=1:-3:-3 / analyse=0x3:0x133 / me=umh / subme=10 / psy=1 / psy_rd=1.05:0.00 / mixed_ref=1 / me_range=32 / chroma_me=1 / trellis=2 / 8x8dct=1 / cqm=0 / deadzone=21,11 / fast_pskip=0 / chroma_qp_offset=-2 / threads=12 / lookahead_threads=2 / sliced_threads=0 / nr=0 / decimate=0 / interlaced=0 / bluray_compat=0 / constrained_intra=0 / bframes=8 / b_pyramid=2 / b_adapt=2 / b_bias=0 / direct=3 / weightb=1 / open_gop=0 / weightp=2 / keyint=250 / keyint_min=24 / scenecut=40 / intra_refresh=0 / rc_lookahead=250 / rc=crf / mbtree=0 / crf=16.8 / qcomp=0.60 / qpmin=0 / qpmax=69 / qpstep=4 / vbv_maxrate=62500 / vbv_bufsize=78125 / crf_max=0.0 / nal_hrd=none / filler=0 / ip_ratio=1.30 / pb_ratio=1.20 / aq=3:0.80
Language                    : English
Default                     : Yes
Forced                      : No
Color range                 : Limited
Color primaries             : BT.709
Matrix coefficients         : BT.709
Audio #1
ID                          : 2
Format                      : AC-3
Format/Info                 : Audio Coding 3
Commercial name             : Dolby Digital
Codec ID                    : A_AC3
Duration                    : 2 h 43 min
Bit rate mode               : Constant
Bit rate                    : 384 kb/s
Channel(s)                  : 6 channels
Channel layout              : L R C LFE Ls Rs
Sampling rate               : 48.0 kHz
Frame rate                  : 31.250 FPS (1536 SPF)
Compression mode            : Lossy
Stream size                 : 449 MiB (2%)
Title                       : iTunes
Language                    : Russian
Service kind                : Complete Main
Default                     : Yes
Forced                      : Yes
Audio #2
ID                          : 3
Format                      : AC-3
Format/Info                 : Audio Coding 3
Commercial name             : Dolby Digital
Codec ID                    : A_AC3
Duration                    : 2 h 43 min
Bit rate mode               : Constant
Bit rate                    : 640 kb/s
Channel(s)                  : 6 channels
Channel layout              : L R C LFE Ls Rs
Sampling rate               : 48.0 kHz
Frame rate                  : 31.250 FPS (1536 SPF)
Compression mode            : Lossy
Stream size                 : 748 MiB (4%)
Title                       : Original
Language                    : English
Service kind                : Complete Main
Default                     : No
Forced                      : No
Text #1
ID                          : 4
Format                      : UTF-8
Codec ID                    : S_TEXT/UTF8
Codec ID/Info               : UTF-8 Plain Text
Duration                    : 2 h 42 min
Bit rate                    : 1 b/s
Count of elements           : 52
Stream size                 : 1.95 KiB (0%)
Title                       : Forced
Language                    : Russian
Default                     : Yes
Forced                      : Yes
Text #2
ID                          : 5
Format                      : UTF-8
Codec ID                    : S_TEXT/UTF8
Codec ID/Info               : UTF-8 Plain Text
Duration                    : 2 h 42 min
Bit rate                    : 64 b/s
Count of elements           : 1735
Stream size                 : 76.3 KiB (0%)
Title                       : Full
Language                    : English
Default                     : No
Forced                      : No
Text #3
ID                          : 6
Format                      : UTF-8
Codec ID                    : S_TEXT/UTF8
Codec ID/Info               : UTF-8 Plain Text
Duration                    : 2 h 15 min
Bit rate                    : 1 b/s
Count of elements           : 55
Stream size                 : 1.21 KiB (0%)
Title                       : Forced
Language                    : English
Default                     : No
Forced                      : No
Text #4
ID                          : 7
Format                      : UTF-8
Codec ID                    : S_TEXT/UTF8
Codec ID/Info               : UTF-8 Plain Text
Duration                    : 2 h 35 min
Bit rate                    : 41 b/s
Count of elements           : 1707
Stream size                 : 47.2 KiB (0%)
Title                       : Full
Language                    : English
Default                     : No
Forced                      : No
Text #5
ID                          : 8
Format                      : UTF-8
Codec ID                    : S_TEXT/UTF8
Codec ID/Info               : UTF-8 Plain Text
Duration                    : 2 h 40 min
Bit rate                    : 50 b/s
Count of elements           : 2191
Stream size                 : 59.5 KiB (0%)
Title                       : SDH
Language                    : English
Default                     : No
Forced                      : No
Menu
00:00:00.000                : Chapter 01
00:06:51.536                : Chapter 02
00:11:57.091                : Chapter 03
00:18:07.003                : Chapter 04
00:27:09.920                : Chapter 05
00:32:39.249                : Chapter 06
00:43:45.957                : Chapter 07
00:57:43.502                : Chapter 08
01:04:06.259                : Chapter 09
01:13:06.424                : Chapter 10
01:22:28.777                : Chapter 11
01:33:49.249                : Chapter 12
01:41:08.020                : Chapter 13
01:52:37.250                : Chapter 14
01:58:30.478                : Chapter 15
02:05:34.652                : Chapter 16
02:13:54.860                : Chapter 17
02:23:59.297                : Chapter 18
02:29:10.483                : Chapter 19
02:36:51.819                : Chapter 20

Скриншоты


-

[Цитировать]



Показать сообщения:    

Текущее время: 23-Май 14:49

Часовой пояс: UTC + 6


Вы не можете начинать темы
Вы не можете отвечать на сообщения
Вы не можете редактировать свои сообщения
Вы не можете удалять свои сообщения
Вы не можете голосовать в опросах
Вы не можете прикреплять файлы к сообщениям
Вы не можете скачивать файлы

!ВНИМАНИЕ!
Сайт не предоставляет электронные версии произведений, а занимается лишь коллекционированием и каталогизацией ссылок, присылаемых и публикуемых на форуме нашими читателями. Если вы являетесь правообладателем какого-либо представленного материала и не желаете, чтобы ссылка на него находилась в нашем каталоге, свяжитесь с нами, и мы незамедлительно удалим ее. Файлы для обмена на трекере предоставлены пользователями сайта, и администрация не несет ответственности за их содержание. Просьба не заливать файлы, защищенные авторскими правами, а также файлы нелегального содержания!