***Уважаемые пользователи и гости !!! Сайт переехал на новый домен Torrents-club.info. Просьба изменить ваши закладки! ***
 
[ Сегодня идет свободное скачивание без начисления Download ]


Статистика раздачи
Нет
 
   
 
 
 
 
Преступник / Criminal (2016) [4K, HEVC, HDR / Blu-Ray Remux] (2160p)
Год выпуска:
2016
Жанр: Фантастика, боевик, триллер, драма, криминал, детектив
Выпущено: Великобритания, США, BenderSpink, Campbell Grobman Films, Lionsgate
Режиссер: Ариэль Вромен
Продолжительность: 01:53:34
Перевод: Дублированный, авторский
Субтитры: Русские, английские
возраст 18+

В ролях
: Кевин Костнер, Гэри Олдман, Томми Ли Джонс, Райан Рейнольдс, Элис Ив, Галь Гадот, Хорди Молья, Майкл Питт, Амори Ноласко, Антье Трауэ, Скотт Эдкинс, Лара Дэкаро, Фредди Бош, Эммануэль Имани, Гарри Хэппл, Даг Кокл, Колин Сэлмон, Стив Николсон

О фильме:
В последней отчаянной попытке остановить катастрофу мирового масштаба генетики осуществляют невероятную операцию по вживлению воспоминаний и умений погибшего оперативника ЦРУ в тело опасного заключенного с надеждой, что тот доведет до конца прерванную миссию агента.
Преступник / Criminal (2016) Дублированный трейлер HD
Техданные
Качество: Blu-Ray Remux (2160p)
Видео: HEVC, 65 Мбит/с, 3840x2160, 23.976 кадр/с
Аудио: Русский (DTS-HD MA, 6 ch, ~ 3650 Кбит/с), (AC3, 6 ch, 640 Кбит/с), (AC3, 6 ch, 448 Кбит/с), английский (DTS-HD MA, 6 ch, 3608 Кбит/с)

Релиз

Видео: MPВидео: MPEG-H HEVC Video / 64998 kbps / 3840x2160 / 23.976 fps / 16:9 / Main 10 @ Level 5.1 @ High / 4:2:0 / 10 bits / HDR10 / BT.2020 /
Аудио 1: Russian DTS-HD Master Audio / 5.1 / 48 kHz / 3654 kbps / 24-bit (DTS Core: 5.1 / 48 kHz / 1509 kbps / 24-bit) |Dub, Blu-Ray|
Аудио 2: Russian AC3 / 5.1 / 48 kHz / 640 kbps |А. Гаврилов|
Аудио 3: Russian AC3 / 5.1 / 48 kHz / 448 kbps |Ю. Живов|
Аудио 4: Russian DTS-HD Master Audio / 5.1 / 48 kHz / 3629 kbps / 24-bit (DTS Core: 5.1 / 48 kHz / 1509 kbps / 24-bit) |Д. Есарев|
Аудио 5: English DTS-HD Master Audio / 5.1 / 48 kHz / 3608 kbps / 24-bit (DTS Core: 5.1 / 48 kHz / 1509 kbps / 24-bit) |original|
Субтитры: русские, английские (full, SDH)
Перевод Д. Есарева доступен благодаря переулку переводмана: Прохожий, napaHouk, gorlum22, Shrooms, Aniskin50, shandorra, kidman644, igrok2012, Старый, Wa1ker, ana2363, ZeDOK, shurikkein, mv73
Работа со звуком - Переводман

MediaInfo:

Общее
Уникальный идентификатор                 : 101879381799183686417511348672682407027 (0x4CA5415597648A5BE9EA1A04413E3473)
Полное имя                               : H:\UHD\Преступник.2016.UHD.Blu-Ray.Remux.2160p.mkv
Формат                                   : Matroska
Версия формата                           : Version 4
Размер файла                             : 61,1 Гбайт
Продолжительность                        : 1 ч. 53 м.
Режим общего битрейта                    : Переменный
Общий поток                              : 77,0 Мбит/сек
Дата кодирования                         : UTC 2019-12-06 20:12:34
Программа кодирования                    : mkvmerge v40.0.0 ('Old Town Road + Pony') 64-bit
Библиотека кодирования                   : libebml v1.3.9 + libmatroska v1.5.2
Attachments                              : poster.jpg
Видео
Идентификатор                            : 1
Формат                                   : HEVC
Формат/Информация                        : High Efficiency Video Coding
Профиль формата                          : Main 10@L5.1@High
HDR_Format/String                        : SMPTE ST 2086, HDR10 compatible
Идентификатор кодека                     : V_MPEGH/ISO/HEVC
Продолжительность                        : 1 ч. 53 м.
Битрейт                                  : 65,0 Мбит/сек
Ширина                                   : 3840 пикселей
Высота                                   : 2160 пикселей
Соотношение сторон                       : 16:9
Режим частоты кадров                     : Постоянный
Частота кадров                           : 23,976 (24000/1001) кадра/сек
Цветовое пространство                    : YUV
Субдискретизация насыщенности            : 4:2:0 (Type 2)
Битовая глубина                          : 10 бит
Бит/(Пиксели*Кадры)                      : 0.327
Размер потока                            : 51,6 Гбайт (84%)
Библиотека кодирования                   : ATEME Titan KFE 3.7.3 (4.7.3.1003)
Default                                  : Да
Forced                                   : Нет
Цветовой диапазон                        : Limited
Основные цвета                           : BT.2020
Характеристики трансфера                 : PQ
Коэффициенты матрицы                     : BT.2020 non-constant
MasteringDisplay_ColorPrimaries          : Display P3
MasteringDisplay_Luminance               : min: 0.0050 cd/m2, max: 1000 cd/m2
MaxCLL                                   : 1000 cd/m2
MaxFALL                                  : 206 cd/m2
Аудио #1
Идентификатор                            : 2
Формат                                   : DTS XLL
Формат/Информация                        : Digital Theater Systems
Коммерческое название                    : DTS-HD Master Audio
Идентификатор кодека                     : A_DTS
Продолжительность                        : 1 ч. 53 м.
Вид битрейта                             : Переменный
Битрейт                                  : 3654 Кбит/сек
Каналы                                   : 6 каналов
ChannelLayout                            : C L R Ls Rs LFE
Частота                                  : 48,0 КГц
Частота кадров                           : 93,750 кадра/сек (512 SPF)
Битовая глубина                          : 24 бит
Метод сжатия                             : Без потерь
Размер потока                            : 2,90 Гбайт (5%)
Заголовок                                : Dub, Blu-Ray
Язык                                     : Russian
Default                                  : Да
Forced                                   : Нет
Аудио #2
Идентификатор                            : 3
Формат                                   : AC-3
Формат/Информация                        : Audio Coding 3
Коммерческое название                    : Dolby Digital
Идентификатор кодека                     : A_AC3
Продолжительность                        : 1 ч. 53 м.
Вид битрейта                             : Постоянный
Битрейт                                  : 640 Кбит/сек
Каналы                                   : 6 каналов
ChannelLayout                            : L R C LFE Ls Rs
Частота                                  : 48,0 КГц
Частота кадров                           : 31,250 кадров/сек (1536 SPF)
Метод сжатия                             : С потерями
Размер потока                            : 520 Мбайт (1%)
Заголовок                                : А. Гаврилов
Язык                                     : Russian
ServiceKind/String                       : Complete Main
Default                                  : Нет
Forced                                   : Нет
Аудио #3
Идентификатор                            : 4
Формат                                   : AC-3
Формат/Информация                        : Audio Coding 3
Коммерческое название                    : Dolby Digital
Идентификатор кодека                     : A_AC3
Продолжительность                        : 1 ч. 53 м.
Вид битрейта                             : Постоянный
Битрейт                                  : 448 Кбит/сек
Каналы                                   : 6 каналов
ChannelLayout                            : L R C LFE Ls Rs
Частота                                  : 48,0 КГц
Частота кадров                           : 31,250 кадров/сек (1536 SPF)
Метод сжатия                             : С потерями
Размер потока                            : 364 Мбайт (1%)
Заголовок                                : Ю. Живов
Язык                                     : Russian
ServiceKind/String                       : Complete Main
Default                                  : Нет
Forced                                   : Нет
Аудио #4
Идентификатор                            : 5
Формат                                   : DTS XLL
Формат/Информация                        : Digital Theater Systems
Коммерческое название                    : DTS-HD Master Audio
Идентификатор кодека                     : A_DTS
Продолжительность                        : 1 ч. 53 м.
Вид битрейта                             : Переменный
Битрейт                                  : 3629 Кбит/сек
Каналы                                   : 6 каналов
ChannelLayout                            : C L R Ls Rs LFE
Частота                                  : 48,0 КГц
Частота кадров                           : 93,750 кадра/сек (512 SPF)
Битовая глубина                          : 24 бит
Метод сжатия                             : Без потерь
Размер потока                            : 2,88 Гбайт (5%)
Заголовок                                : Д. Есарев
Язык                                     : Russian
Default                                  : Нет
Forced                                   : Нет
Аудио #5
Идентификатор                            : 6
Формат                                   : DTS XLL
Формат/Информация                        : Digital Theater Systems
Коммерческое название                    : DTS-HD Master Audio
Идентификатор кодека                     : A_DTS
Продолжительность                        : 1 ч. 53 м.
Вид битрейта                             : Переменный
Битрейт                                  : 3608 Кбит/сек
Каналы                                   : 6 каналов
ChannelLayout                            : C L R Ls Rs LFE
Частота                                  : 48,0 КГц
Частота кадров                           : 93,750 кадра/сек (512 SPF)
Битовая глубина                          : 24 бит
Метод сжатия                             : Без потерь
Размер потока                            : 2,86 Гбайт (5%)
Язык                                     : English
Default                                  : Нет
Forced                                   : Нет
Текст #1
Идентификатор                            : 7
Формат                                   : UTF-8
Идентификатор кодека                     : S_TEXT/UTF8
Идентификатор кодека/Информация          : UTF-8 Plain Text
Продолжительность                        : 1 ч. 43 м.
Битрейт                                  : 58 бит/сек
ElementCount                             : 996
Размер потока                            : 44,6 Кбайт (0%)
Заголовок                                : full
Язык                                     : Russian
Default                                  : Нет
Forced                                   : Нет
Текст #2
Идентификатор                            : 8
Формат                                   : UTF-8
Идентификатор кодека                     : S_TEXT/UTF8
Идентификатор кодека/Информация          : UTF-8 Plain Text
Продолжительность                        : 1 ч. 43 м.
Битрейт                                  : 41 бит/сек
ElementCount                             : 1016
Размер потока                            : 31,5 Кбайт (0%)
Заголовок                                : full
Язык                                     : English
Default                                  : Нет
Forced                                   : Нет
Текст #3
Идентификатор                            : 9
Формат                                   : UTF-8
Идентификатор кодека                     : S_TEXT/UTF8
Идентификатор кодека/Информация          : UTF-8 Plain Text
Продолжительность                        : 1 ч. 43 м.
Битрейт                                  : 46 бит/сек
ElementCount                             : 1272
Размер потока                            : 35,1 Кбайт (0%)
Заголовок                                : SDH
Язык                                     : English
Default                                  : Нет
Forced                                   : Нет
Меню
00:00:00.000                             : en:Chapter 1
00:10:41.266                             : en:Chapter 2
00:15:32.265                             : en:Chapter 3
00:23:45.341                             : en:Chapter 4
00:30:56.563                             : en:Chapter 5
00:36:01.368                             : en:Chapter 6
00:45:36.317                             : en:Chapter 7
00:48:48.509                             : en:Chapter 8
00:54:51.455                             : en:Chapter 9
01:01:46.244                             : en:Chapter 10
01:08:32.608                             : en:Chapter 11
01:16:11.609                             : en:Chapter 12
01:22:20.144                             : en:Chapter 13
01:29:52.012                             : en:Chapter 14
01:36:46.092                             : en:Chapter 15
01:42:08.497                             : en:Chapter 16

Скриншоты

[Цитировать]



Показать сообщения:    

Текущее время: 22-Фев 01:11

Часовой пояс: UTC + 6


Вы не можете начинать темы
Вы не можете отвечать на сообщения
Вы не можете редактировать свои сообщения
Вы не можете удалять свои сообщения
Вы не можете голосовать в опросах
Вы не можете прикреплять файлы к сообщениям
Вы не можете скачивать файлы

!ВНИМАНИЕ!
Сайт не предоставляет электронные версии произведений, а занимается лишь коллекционированием и каталогизацией ссылок, присылаемых и публикуемых на форуме нашими читателями. Если вы являетесь правообладателем какого-либо представленного материала и не желаете, чтобы ссылка на него находилась в нашем каталоге, свяжитесь с нами, и мы незамедлительно удалим ее. Файлы для обмена на трекере предоставлены пользователями сайта, и администрация не несет ответственности за их содержание. Просьба не заливать файлы, защищенные авторскими правами, а также файлы нелегального содержания!