***Уважаемые пользователи и гости !!! Сайт переехал на новый домен Torrents-club.info. Просьба изменить ваши закладки! ***
 
[ Сегодня идет свободное скачивание без начисления Download ]


Статистика раздачи
Нет
 
   
 
 
 
 
Джеймс Бонд 007: Казино Рояль / James Bond 007: Casino Royale (2006) [4K, HEVC, HDR / BDRip] (2160p)
Год выпуска
: 2006
Жанр: Боевик, триллер, приключения, экранизация
Выпущено: Великобритания, Чехия, США, Германия, Багамы, Columbia Pictures
Режиссер: Мартин Кэмпбелл
Продолжительность: 02:24:33
Перевод: Дублированный
Субтитры: Русские, английские
возраст 6+

В ролях:
Дэниэл Крэйг, Ева Грин, Мадс Миккельсен, Джуди Денч, Джеффри Райт, Джанкарло Джаннини, Катерина Мурино, Симон Абкарян, Исаак Де Банколе, Еспер Кристенсен, Ивана Миличевич, Тобайас Мензис, Клаудио Сантамария, Себастьен Фука, Малкольм Синклер, Рихард Заммель, Людгер Пистор, Джозеф Миллсон, Дауд Шах, Клеменс Шик, Эммануель Авена, Том Чэдбон, Эд, Урбано Барберини, Цай Чинь, Чарли Леви

О фильме:
Фильм по роману Яна Флеминга - ”Казино ”Рояль” - своеобразное возвращение к истокам Бондианы. Он снят по первой книге Яна Флеминга - о Джеймсе Бонде, хотя сюжет и претерпел в киноварианте ряд непринципиальных изменений. Именно в этом фильме начинающий секретный агент, брутальный и серьёзный парень из британской разведки, становится непревзойдённым суперагентом 007. Именно здесь ему предстоит не только разделаться в нелёгкой борьбе, как с оружием в руках, так и за карточным столом (по долгу службы!), с подпольным банкиром Ле Шиффром, отмывающим деньги сразу нескольких могучих террористических организаций, но и запомнить раз и навсегда на будущее: если роман перерастает в истинную любовь, то боль, которую она способна причинить, тоже будет абсолютно настоящей... Дебют Дэниела Крэйга в роли агента 007, вопреки первоначальным сомнениям многих, оказавшийся вполне успешным.
Казино Рояль (2006) — русский трейлер
Техданные
Качество: BDRip (2160p)
Видео: HEVC, 15500 Кбит/с, 3840x1606, 23.976 кадр/с, 10 бит
Аудио: Русский (DTS, 6 ch, 768 Кбит/с), английский (DTS-HD MA, 6 ch, 3887 Кбит/с)

Релиз

Мастер 5
Видеоряд от IAMABLE
Формат: Main 10@L5.1@High_x265_HDR10
Цветовой праймериз: BT.2020
Характеристики передачи: PQ
Матричные коэффициенты: BT.2020
Освоение основных цветов дисплея: Дисплей P3
Освоение яркости дисплея:мин:0.0001 cd/m2, max: 1000 cd/m2
Аудио: 48 kHz, DTS, 5.1, 768 Kbps | Лицензия | RUS |
Аудио: 48 kHz, DTS-HD MA, 5.1, 3887 Kbps | Оригинал | ENG |
Субтитры: Русские (Forced, full), английские

MediaInfo:

Общее
Уникальный идентификатор                 : 242814637044818518633087063981049167565 (0xB6AC65E614D6115CBFCF6165AF2EBECD)
Полное имя                               : D:\Передел\Casino.Royale.2006.2160p.UHD.BDRip.X265.10bit.HDR.Master5.mkv
Формат                                   : Matroska
Версия формата                           : Version 4
Размер файла                             : 20,3 Гбайт
Продолжительность                        : 2 ч. 24 м.
Режим общего битрейта                    : Переменный
Общий поток                              : 20,1 Мбит/сек
Название фильма                          : Casino.Royale.2006.2160p.UHD.BDRip.X265.10bit.HDR.Master5
Дата кодирования                         : UTC 2019-10-21 15:05:32
Программа кодирования                    : mkvmerge v7.9.0 ('Birds') 64bit
Библиотека кодирования                   : libebml v1.3.1 + libmatroska v1.4.2
Видео
Идентификатор                            : 1
Формат                                   : HEVC
Формат/Информация                        : High Efficiency Video Coding
Коммерческое название                    : HDR10
Профиль формата                          : Main 10@L5.1@High
Идентификатор кодека                     : V_MPEGH/ISO/HEVC
Продолжительность                        : 2 ч. 24 м.
Битрейт                                  : 15,5 Мбит/сек
Ширина                                   : 3840 пикселей
Высота                                   : 1606 пикселей
Соотношение сторон                       : 2,40:1
Режим частоты кадров                     : Постоянный
Частота кадров                           : 23,976 (24000/1001) кадра/сек
Цветовое пространство                    : YUV
Субдискретизация насыщенности            : 4:2:0 (Type 2)
Битовая глубина                          : 10 бит
Бит/(Пиксели*Кадры)                      : 0.105
Размер потока                            : 15,6 Гбайт (77%)
Заголовок                                : Casino.Royale.2006.2160p.UHD.BDRip.X265.10bit.HDR.Master5
Библиотека кодирования                   : x265 3.1+11-de920e0a3183:[Windows][MSVC 1900][64 bit] 10bit
Настройки программы                      : cpuid=1176575 / frame-threads=5 / numa-pools=32 / wpp / no-pmode / no-pme / no-psnr / no-ssim / log-level=2 / input-csp=1 / input-res=3840x1606 / interlace=0 / total-frames=207951 / level-idc=51 / high-tier=1 / uhd-bd=0 / ref=4 / no-allow-non-conformance / repeat-headers / annexb / aud / hrd / info / hash=0 / no-temporal-layers / no-open-gop / min-keyint=24 / keyint=240 / gop-lookahead=0 / bframes=4 / b-adapt=2 / b-pyramid / bframe-bias=0 / rc-lookahead=25 / lookahead-slices=4 / scenecut=40 / radl=0 / no-splice / no-intra-refresh / ctu=64 / min-cu-size=8 / rect / no-amp / max-tu-size=32 / tu-inter-depth=1 / tu-intra-depth=1 / limit-tu=0 / rdoq-level=2 / dynamic-rd=0.00 / no-ssim-rd / signhide / no-tskip / nr-intra=0 / nr-inter=0 / no-constrained-intra / no-strong-intra-smoothing / max-merge=3 / limit-refs=3 / limit-modes / me=3 / subme=3 / merange=57 / temporal-mvp / no-hme / weightp / no-weightb / no-analyze-src-pics / deblock=-3:-3 / no-sao / no-sao-non-deblock / rd=4 / no-early-skip / rskip / no-fast-intra / no-tskip-fast / no-cu-lossless / no-b-intra / no-splitrd-skip / rdpenalty=0 / psy-rd=2.00 / psy-rdoq=1.00 / no-rd-refine / no-lossless / cbqpoffs=0 / crqpoffs=0 / rc=crf / crf=17.0 / qcomp=0.60 / qpstep=4 / stats-write=0 / stats-read=0 / vbv-maxrate=160000 / vbv-bufsize=160000 / vbv-init=0.9 / crf-max=0.0 / crf-min=0.0 / ipratio=1.40 / pbratio=1.30 / aq-mode=2 / aq-strength=1.00 / cutree / zone-count=0 / no-strict-cbr / qg-size=32 / no-rc-grain / qpmax=69 / qpmin=0 / no-const-vbv / sar=1 / overscan=0 / videoformat=5 / range=0 / colorprim=9 / transfer=16 / colormatrix=9 / chromaloc=1 / chromaloc-top=2 / chromaloc-bottom=2 / display-window=0 / master-display=G(13250,34500)B(7500,3000)R(34000,16000)WP(15635,16450)L(10000000,1)cll=0,0 / min-luma=0 / max-luma=1023 / log2-max-poc-lsb=8 / vui-timing-info / vui-hrd-info / slices=1 / no-opt-qp-pps / no-opt-ref-list-length-pps / no-multi-pass-opt-rps / scenecut-bias=0.05 / no-opt-cu-delta-qp / no-aq-motion / hdr / hdr-opt / no-dhdr10-opt / no-idr-recovery-sei / analysis-reuse-level=5 / scale-factor=0 / refine-intra=0 / refine-inter=0 / refine-mv=0 / refine-ctu-distortion=0 / no-limit-sao / ctu-info=0 / no-lowpass-dct / refine-analysis-type=0 / copy-pic=1 / max-ausize-factor=1.0 / no-dynamic-refine / no-single-sei / no-hevc-aq / no-svt / no-field / qp-adaptation-range=1.00
Default                                  : Да
Forced                                   : Нет
Цветовой диапазон                        : Limited
Основные цвета                           : BT.2020
Характеристики трансфера                 : PQ
Коэффициенты матрицы                     : BT.2020 non-constant
MasteringDisplay_ColorPrimaries          : Display P3
MasteringDisplay_Luminance               : min: 0.0001 cd/m2, max: 1000 cd/m2
Аудио #1
Идентификатор                            : 2
Формат                                   : DTS
Формат/Информация                        : Digital Theater Systems
Идентификатор кодека                     : A_DTS
Продолжительность                        : 2 ч. 24 м.
Вид битрейта                             : Постоянный
Битрейт                                  : 768 Кбит/сек
Каналы                                   : 6 каналов
Channel layout                           : C L R Ls Rs LFE
Частота                                  : 48,0 КГц
Частота кадров                           : 93,750 кадра/сек (512 SPF)
Битовая глубина                          : 24 бит
Метод сжатия                             : С потерями
Размер потока                            : 794 Мбайт (4%)
Заголовок                                : Dub License
Язык                                     : Russian
Default                                  : Да
Forced                                   : Да
Аудио #2
Идентификатор                            : 3
Формат                                   : DTS XLL
Формат/Информация                        : Digital Theater Systems
Коммерческое название                    : DTS-HD Master Audio
Идентификатор кодека                     : A_DTS
Продолжительность                        : 2 ч. 24 м.
Вид битрейта                             : Переменный
Битрейт                                  : 3887 Кбит/сек
Каналы                                   : 6 каналов
Channel layout                           : C L R Ls Rs LFE
Частота                                  : 48,0 КГц
Частота кадров                           : 93,750 кадра/сек (512 SPF)
Битовая глубина                          : 24 бит
Метод сжатия                             : Без потерь
Размер потока                            : 3,92 Гбайт (19%)
Заголовок                                : Original
Язык                                     : English
Default                                  : Нет
Forced                                   : Нет
Текст #1
Идентификатор                            : 4
Формат                                   : UTF-8
Идентификатор кодека                     : S_TEXT/UTF8
Идентификатор кодека/Информация          : UTF-8 Plain Text
Продолжительность                        : 2 ч. 12 м.
Битрейт                                  : 1 бит/сек
ElementCount                             : 26
Размер потока                            : 1,22 Кбайт (0%)
Заголовок                                : Forced
Язык                                     : Russian
Default                                  : Да
Forced                                   : Да
Текст #2
Идентификатор                            : 5
Формат                                   : UTF-8
Идентификатор кодека                     : S_TEXT/UTF8
Идентификатор кодека/Информация          : UTF-8 Plain Text
Продолжительность                        : 2 ч. 23 м.
Битрейт                                  : 47 бит/сек
ElementCount                             : 1070
Размер потока                            : 50,5 Кбайт (0%)
Заголовок                                : Full
Язык                                     : Russian
Default                                  : Нет
Forced                                   : Нет
Текст #3
Идентификатор                            : 6
Формат                                   : UTF-8
Идентификатор кодека                     : S_TEXT/UTF8
Идентификатор кодека/Информация          : UTF-8 Plain Text
Продолжительность                        : 2 ч. 19 м.
Битрейт                                  : 32 бит/сек
ElementCount                             : 1042
Размер потока                            : 33,2 Кбайт (0%)
Заголовок                                : Full
Язык                                     : English
Default                                  : Нет
Forced                                   : Нет
Меню
00:00:00.000                             : en:00:00:00.000
00:09:37.952                             : en:00:09:37.952
00:19:31.170                             : en:00:19:31.170
00:25:35.993                             : en:00:25:35.993
00:35:18.908                             : en:00:35:18.908
00:39:59.522                             : en:00:39:59.522
00:45:22.428                             : en:00:45:22.428
00:57:51.051                             : en:00:57:51.051
01:07:22.288                             : en:01:07:22.288
01:17:12.044                             : en:01:17:12.044
01:30:06.067                             : en:01:30:06.067
01:38:41.165                             : en:01:38:41.165
01:43:29.620                             : en:01:43:29.620
01:54:03.045                             : en:01:54:03.045
02:05:45.371                             : en:02:05:45.371
02:13:19.700                             : en:02:13:19.700

Скриншоты

[Цитировать]



Показать сообщения:    

Текущее время: 21-Фев 23:42

Часовой пояс: UTC + 6


Вы не можете начинать темы
Вы не можете отвечать на сообщения
Вы не можете редактировать свои сообщения
Вы не можете удалять свои сообщения
Вы не можете голосовать в опросах
Вы не можете прикреплять файлы к сообщениям
Вы не можете скачивать файлы

!ВНИМАНИЕ!
Сайт не предоставляет электронные версии произведений, а занимается лишь коллекционированием и каталогизацией ссылок, присылаемых и публикуемых на форуме нашими читателями. Если вы являетесь правообладателем какого-либо представленного материала и не желаете, чтобы ссылка на него находилась в нашем каталоге, свяжитесь с нами, и мы незамедлительно удалим ее. Файлы для обмена на трекере предоставлены пользователями сайта, и администрация не несет ответственности за их содержание. Просьба не заливать файлы, защищенные авторскими правами, а также файлы нелегального содержания!