***Уважаемые пользователи и гости !!! Сайт переехал на новый домен Torrents-club.info. Просьба изменить ваши закладки! ***
 
[ Сегодня идет свободное скачивание без начисления Download ]


Статистика раздачи
Скачал: [ 4 ]
 
   
 
 
 
 
Легенды войны [01-04 из 04] (2015) WEB-DLRip Информация о фильме
Оригинальное название: Легенды войны
Год выпуска: 2015
Жанр: Документальный, авиация, война, история
Выпущено: Россия, ООО «Стар Медиа Дистрибьюшн»
Режиссер: Павел Тупик
О фильме: Документальный цикл «Легенды войны» посвящен знаменитым боевым самолетам, которые помогли одержать победу в Великой Отечественной войне. Это такие истребители, как Як-3 и «Аэрокобра», пикирующий бомбардировщик Пе-2 и штурмовик Ил-2. В сериале использована компьютерная графика, редкие кадры документальной хроники и художественно воспроизведенные сцены из жизни летчиков.

Содержание

1. Ил-2
Восемнадцатилетний Николай Пургин попал на фронт в 41-м. За всю войну он совершил 232 боевых вылета и стал одним из наиболее выдающихся лётчиков-штурмовиков советских ВВС. Пургин летал на легендарном «горбатом» - самолете Ил-2 конструкции Сергея Ильюшина. Именно Ил-2 оказался самым массовым боевым самолётом в истории мировой авиации.
2. Р-39 «Аэрокобра»
«Чем больше врага - тем легче бить его» - говорил советский летчик Дмитрий Глинка. Весной-летом 1943 года он с братом - летчиком Борисом Глинкой - дрался с немцами на Кубани. На американских истребителях Р-39 «Аэрокобра», братья-герои одерживали победы и поражения, спасали друг другу жизнь, падали сбитыми, но всегда возвращались в небо.
3. Як-3
В июне 1940-го года Франция капитулировала перед Германией. Летчики Марсель Альбер, Марсель Лефевр и Альбер Дюран не желали служить в колониальных войсках профашистского режима и бежали из Алжира в Великобританию. А в 1942-м – примкнули к группе «Нормандия», чтобы сражаться в аду советско-германского фронта на истребителях «Як». Из троих друзей войну пережил только один.
4. Пе-2
Когда началась война, второкурснице МАИ Галине Джунковской удалось попасть в женскую авиагруппу легендарной летчицы Марины Расковой. Галина стала штурманом пикирующего бомбардировщика Пе-2 конструкции Владимира Петлякова. Петляков работал в ЦКБ-29. Это необычное конструкторское бюро принадлежало Спецтехотделу НКВД, и комплектовалось заключенными - врагами народа. Именно там авиаконструктор создал машину, которой суждено было стать самым массовым советским бомбардировщиком Второй Мировой. На самолете Петлякова Галина Джунковская сражалась в Сталинграде, на Кавказе и в Прибалтике. В 45-м на счету девушки было 62 боевых вылета и десятки уничтоженных целей, за что ей присвоили звание Героя Советского Союза.
Файл
Качество: WEB-DLRip
Видео: XviD build 73, 720x400 (16:9), 23.976 fps, ~ 1550 Kbps (~ 0.225 bit/pixel)
Аудио: 48.0 kHz, AC3, 2/0 ch, 192 kbps
Продолжительность: 4 х ~ 00:25:00
Перевод: Не требуется [Русский]
Cубтитры: нет

Скриншоты



MediaInfo

General
Complete name : D:RazdachiLegendy.Voiny.2015.WEB-DLRip.GeneralFilmE01.Legendy.Voiny.avi
Format : AVI
Format/Info : Audio Video Interleave
File size : 319 MiB
Duration : 25 min 28 s
Overall bit rate : 1 752 kb/s
Writing application : VirtualDubMod 1.5.10.3 | www.virtualdub-fr.org || (build 2550/release)
Writing library : VirtualDubMod build 2550/release
Video
ID : 0
Format : MPEG-4 Visual
Format profile : Advanced Simple@L5
Format settings : BVOP1 / Custom Matrix
Format settings, BVOP : 1
Format settings, QPel : No
Format settings, GMC : No warppoints
Format settings, Matrix : Custom
Codec ID : XVID
Codec ID/Hint : XviD
Duration : 25 min 28 s
Bit rate : 1 550 kb/s
Width : 720 pixels
Height : 400 pixels
Display aspect ratio : 16:9
Frame rate : 23.976 (24000/1001) FPS
Color space : YUV
Chroma subsampling : 4:2:0
Bit depth : 8 bits
Scan type : Progressive
Compression mode : Lossy
Bits/(Pixel*Frame) : 0.225
Stream size : 283 MiB (88%)
Writing library : XviD 73
Audio
ID : 1
Format : AC-3
Format/Info : Audio Coding 3
Commercial name : Dolby Digital
Codec ID : 2000
Duration : 25 min 28 s
Bit rate mode : Constant
Bit rate : 192 kb/s
Channel(s) : 2 channels
Channel layout : L R
Sampling rate : 48.0 kHz
Frame rate : 31.250 FPS (1536 SPF)
Compression mode : Lossy
Stream size : 35.0 MiB (11%)
Alignment : Split across interleaves
Interleave, duration : 42 ms (1.00 video frame)
Interleave, preload duratio : 500 ms
Service kind : Complete Main
Релиз от:

[Цитировать]



Показать сообщения:    

Текущее время: 23-Фев 10:59

Часовой пояс: UTC + 6


Вы не можете начинать темы
Вы не можете отвечать на сообщения
Вы не можете редактировать свои сообщения
Вы не можете удалять свои сообщения
Вы не можете голосовать в опросах
Вы не можете прикреплять файлы к сообщениям
Вы не можете скачивать файлы

!ВНИМАНИЕ!
Сайт не предоставляет электронные версии произведений, а занимается лишь коллекционированием и каталогизацией ссылок, присылаемых и публикуемых на форуме нашими читателями. Если вы являетесь правообладателем какого-либо представленного материала и не желаете, чтобы ссылка на него находилась в нашем каталоге, свяжитесь с нами, и мы незамедлительно удалим ее. Файлы для обмена на трекере предоставлены пользователями сайта, и администрация не несет ответственности за их содержание. Просьба не заливать файлы, защищенные авторскими правами, а также файлы нелегального содержания!