***Уважаемые пользователи и гости !!! Сайт переехал на новый домен Torrents-club.info. Просьба изменить ваши закладки! ***
 
[ Сегодня идет свободное скачивание без начисления Download ]


Статистика раздачи
Нет
 
   
 
 
 
 
Комитет Бога / The God Committee
- Производство: США / Crystal City Entertainment, Paper Street Films, Phiphen Pictures
Жанр: Триллер
Режиссер: Остин Старк
Актеры: Келси Грэммер, Джулия Стайлз, Колман Доминго, Джанин Гарофало, Дэн Хедайя, Патриция Р. Флойд, Питер Й. Ким, Мотелл Джин Фостер, Элизабет Масуччи, Jackson Thurtle
Описание:
Когда в больницу Нью-Йорка неожиданно поступает донорское сердце, у комитета по пересадке органов есть один час, чтобы решить, кто из трех пациентов заслуживает спасительного сердца. Судьбоносное решение находится в руках пяти врачей, в числе которых циничный, но блестящий кардиохирург Боксер, новичок-идеалист Джордан и измученный бюрократ Гилрой. Споры вокруг сердца накаляются, этика противостоит взяточничеству, и члены комитета должны ответить на вопрос, что важнее: мораль или деньги?

Дата мировой премьеры: 20 июня 2021
Релиз от: Gateberg
Продолжительность: 01:38:42
Качество видео: WEBRip
Перевод: Любительский многоголоcый (MUZOBOZ)
Субтитры: Английские
Видео: AVC/H.264, 1912x796, ~8005 kbps
Аудио 1: AC3, 2 ch, 256 kbps - Русский
Аудио 2: AC3, 6 ch, 384 kbps - Английский

MediaInfo:

Общее
Уникальный идентификатор : 199906671379232315103331893263595430769 (0x96649FDBE72E31317ED57542980F6371)
Полное имя : D:\NNM\Комитет Бога\The.God.Committee.2021.1080p.WEBRip.mkv
Формат : Matroska
Версия формата : Version 4
Размер файла : 5,10 Гбайт
Продолжительность : 1 ч. 38 м.
Общий поток : 7 394 Кбит/сек
Название фильма : The.God.Committee.2021.1080p.WEBRip
Дата кодирования : UTC 2021-08-09 12:30:51
Программа кодирования : mkvmerge v59.0.0 ('Shining Star') 64-bit
Библиотека кодирования : libebml v1.4.2 + libmatroska v1.6.4
Видео
Идентификатор : 1
Формат : AVC
Формат/Информация : Advanced Video Codec
Профиль формата : High@L4
Настройки формата : CABAC / 5 Ref Frames
Параметр CABAC формата : Да
Параметр RefFrames формата : 5 кадров
Идентификатор кодека : V_MPEG4/ISO/AVC
Продолжительность : 1 ч. 38 м.
Битрейт : 6 751 Кбит/сек
Ширина : 1 912 пикселей
Высота : 796 пикселей
Соотношение сторон : 2,40:1
Режим частоты кадров : Постоянный
Частота кадров : 23,976 (24000/1001) кадра/сек
Цветовое пространство : YUV
Субдискретизация насыщенности : 4:2:0
Битовая глубина : 8 бит
Тип развёртки : Прогрессивная
Бит/(Пиксели*Кадры) : 0.185
Размер потока : 4,65 Гбайт (91%)
Default : Да
Forced : Нет
Цветовой диапазон : Limited
Основные цвета : BT.709
Характеристики трансфера : BT.709
Коэффициенты матрицы : BT.709
Аудио #1
Идентификатор : 2
Формат : AC-3
Формат/Информация : Audio Coding 3
Коммерческое название : Dolby Digital
Идентификатор кодека : A_AC3
Продолжительность : 1 ч. 38 м.
Вид битрейта : Постоянный
Битрейт : 256 Кбит/сек
Каналы : 2 канала
Channel layout : L R
Частота : 48,0 КГц
Частота кадров : 31,250 кадров/сек (1536 SPF)
Метод сжатия : С потерями
Размер потока : 181 Мбайт (3%)
Заголовок : [MVO] MUZOBOZ
Язык : Russian
Service kind : Complete Main
Default : Да
Forced : Нет
Аудио #2
Идентификатор : 3
Формат : AC-3
Формат/Информация : Audio Coding 3
Коммерческое название : Dolby Digital
Идентификатор кодека : A_AC3
Продолжительность : 1 ч. 38 м.
Вид битрейта : Постоянный
Битрейт : 384 Кбит/сек
Каналы : 6 каналов
Channel layout : L R C LFE Ls Rs
Частота : 48,0 КГц
Частота кадров : 31,250 кадров/сек (1536 SPF)
Метод сжатия : С потерями
Размер потока : 271 Мбайт (5%)
Заголовок : English
Язык : English
Service kind : Complete Main
Default : Нет
Forced : Нет
Текст #1
Идентификатор : 4
Формат : UTF-8
Идентификатор кодека : S_TEXT/UTF8
Идентификатор кодека/Информация : UTF-8 Plain Text
Продолжительность : 43 м. 3 с.
Битрейт : 80 бит/сек
Count of elements : 813
Размер потока : 25,4 Кбайт (0%)
Заголовок : English SDH
Язык : English
Default : Нет
Forced : Нет
Текст #2
Идентификатор : 5
Формат : UTF-8
Идентификатор кодека : S_TEXT/UTF8
Идентификатор кодека/Информация : UTF-8 Plain Text
Продолжительность : 42 м. 20 с.
Битрейт : 72 бит/сек
Count of elements : 643
Размер потока : 22,4 Кбайт (0%)
Заголовок : English
Язык : English
Default : Нет
Forced : Нет

Скриншоты:

-

[Цитировать]



Показать сообщения:    

Текущее время: 08-Дек 02:48

Часовой пояс: UTC + 6


Вы не можете начинать темы
Вы не можете отвечать на сообщения
Вы не можете редактировать свои сообщения
Вы не можете удалять свои сообщения
Вы не можете голосовать в опросах
Вы не можете прикреплять файлы к сообщениям
Вы не можете скачивать файлы

!ВНИМАНИЕ!
Сайт не предоставляет электронные версии произведений, а занимается лишь коллекционированием и каталогизацией ссылок, присылаемых и публикуемых на форуме нашими читателями. Если вы являетесь правообладателем какого-либо представленного материала и не желаете, чтобы ссылка на него находилась в нашем каталоге, свяжитесь с нами, и мы незамедлительно удалим ее. Файлы для обмена на трекере предоставлены пользователями сайта, и администрация не несет ответственности за их содержание. Просьба не заливать файлы, защищенные авторскими правами, а также файлы нелегального содержания!