***Уважаемые пользователи и гости !!! Сайт переехал на новый домен Torrents-club.info. Просьба изменить ваши закладки! ***
 
[ Сегодня идет свободное скачивание без начисления Download ]


Статистика раздачи
Нет
 
   
 
 
 
-Воплі Відоплясова-Жанр: Rock
Носитель: MC
Аудио кодек: FLAC
Тип рипа: image+.cue
Формат записи: 32/192
Формат раздачи: 24/96
Источник оцифровки: droman42
Устройство воспроизведения: AIWA AD-F 990, Revox B215
АЦП: TASCAM UH-7000
Программа-оцифровщик: Audacity 2.3 (OS X), Audacity 3.2.5 (Windows)
Обработка: нормализация-Вопли Видоплясова - (укр. Воплі Відоплясова, также «Vоплі Vідоплясова»; сокращённо ВВ) — украинская рок-группа, созданная в 1986 году. Лидер группы — вокалист Олег Скрипка. Группа «Вопли Видоплясова» является основателем украинского рок-н-ролла и этно-рока (группа получила премию «Celebrity Awards 2020» в номинации «Лучшая этно-рок группа».

Основание

Организаторами группы стали гитарист Юрий Здоренко и басист Александр Пипа, которые до этого с 1984 года играли хэви-метал в группе SOS. Переломным моментом для друзей-музыкантов стал 1986 год, когда произошла встреча Здоренко и Пипы с музыкантом-шоуменом Олегом Скрипкой. Четвёртым участником «ВВ» стал ударник Сергей Сахно.
Название для новой группы предложил Пипа, который в то время зачитывался Достоевским: «Воплями Видоплясова» именовал свои опусы персонаж повести «Село Степанчиково и его обитатели» — лакей Григорий Видоплясов, охваченный неудержимой тягой к литературному творчеству.
Музыка группы испытала заметное влияние рок-н-ролла, панка и разнообразных этно-стилей.
Участники группы не имеют музыкального образования. Скрипка пришел в рок-н-ролл из театра и с военного завода, где после учёбы в Киевском политехническом институте работал инженером. Здоренко был водопроводчиком. Сахно учился барабанному делу у ударника киевского мюзик-холла. А Пипу выгнали из музыкальной школы ещё в младших классах. «Я ни разу не встречал басиста, который играл бы хуже меня», — честно признаётся Александр.
В 1987 году «ВВ» дебютировали на фестивале Киевского рок-клуба, где получили приз «Группа года». «Песней года» стал их «Плач Ярославны». В первой концертной программе коллектива звучали песни «Товарищ майор», «Розмова з Махатмою», «Були деньки» и «Танці». Именно «Танці» стали почти неофициальным гимном группы. Это произведение пересекло границы республики и познакомило остальные города Советского Союза с многообещающими дебютантами из Киева.
В 1988 году «Вопли» вместе с земляками из «Коллежского Асессора» и «Рабботой Хо» организовали так называемую «Рок-Артель» и начали гастролировать по стране. Состоялись концерты на вильнюсском «Рок-форуме-88» (диплом фестиваля), на фестивале «СыРок-88», дебют в московском ДК им. Горбунова, съемки во французском фильме «Рок вокруг Кремля» (где «ВВ» символизировали национальный украинский рок), выступления на фестивалях «Киев — Варшава», «Рок-сырок». Концерты группы проходили с успехом.
В 1989 году группа посетила Ленинград, первый концерт в этом городе был организован Сергеем Фирсовым. Он прошёл в театральном зале «Время» в Автово. Кроме «Воплей», этот концерт был первым в Ленинграде для ГрОб, Янки, Не ждали, пятым участником концерта стал «АукцЫон».
В конце 80-х музыкальный журналист В. Иванов писал: «Атмосфера на концерте „ВВ“ — нечто среднее между гоголевским „Вием“ и колхозным клубом. Звучание — жесткое, напористое. Характер резкий, жестяной звук гитары в сочетании с пронзительными пассажами баяна. Сценическая пластика, экстравагантный вокал Скрипки делают его наиболее колоритной фигурой группы, но „ВВ“ — это сбалансированный ансамбль ярких индивидуальностей».
Записанный в то время альбом «Танці» известный критик Александр Кушнир внёс в список 100 лучших альбомов советского рока.

[1990] Гей, любо! (Украина, Кобза, КОБ С0.20)

Год выпуска: 1990
Лейбл: Кобза, С0.20
Страна-производитель: Украина
Продолжительность: 00:58:00
Треклист:
1. Зв'язок
2. Полонина
3. Пісенька
4. Гей, любо!
5. Галина
6. Були деньки
7. Білі плями
8. Галілуя
9. Шалена зірка
10. Світанок
11. Танці
12. Пісня
13. Веселковий твіст
14. Музіка
15. Я летів
16. Трава
17. АБАПАП
18. Колись
19. Країна мрій

CUE

REM DATE 1990
REM COMMENT "MC rip by droman42"
REM COMMENT "Тракт: Revox B215 -> TASCAM UH-7000 -> Audacity 3.2.5"
REM COMMENT "Capture: 32/192, release: 24/96"
REM COMMENT "Issue: Ukraine, Кобза, КОБ C0.20"
PERFORMER "Воплі Відоплясова"
TITLE "Гей, любо!"
FILE "гей_любо.flac" WAVE
TRACK 01 AUDIO
PERFORMER "Воплі Відоплясова"
TITLE "Зв'язок"
INDEX 01 00:00:00
TRACK 02 AUDIO
PERFORMER "Воплі Відоплясова"
TITLE "Полонина"
INDEX 01 02:15:00
TRACK 03 AUDIO
PERFORMER "Воплі Відоплясова"
TITLE "Пісенька"
INDEX 01 05:42:00
TRACK 04 AUDIO
PERFORMER "Воплі Відоплясова"
TITLE "Гей, любо!"
INDEX 01 09:43:00
TRACK 05 AUDIO
PERFORMER "Воплі Відоплясова"
TITLE "Галина"
INDEX 01 12:32:00
TRACK 06 AUDIO
PERFORMER "Воплі Відоплясова"
TITLE "Були деньки"
INDEX 01 15:25:00
TRACK 07 AUDIO
PERFORMER "Воплі Відоплясова"
TITLE "Білі плями"
INDEX 01 18:37:00
TRACK 08 AUDIO
PERFORMER "Воплі Відоплясова"
TITLE "Галілуя"
INDEX 01 21:41:00
TRACK 09 AUDIO
PERFORMER "Воплі Відоплясова"
TITLE "Шалена зірка"
INDEX 01 24:09:30
TRACK 10 AUDIO
PERFORMER "Воплі Відоплясова"
TITLE "Світанок"
INDEX 01 27:17:00
TRACK 11 AUDIO
PERFORMER "Воплі Відоплясова"
TITLE "Танці"
INDEX 01 30:32:00
TRACK 12 AUDIO
PERFORMER "Воплі Відоплясова"
TITLE "Пісня"
INDEX 01 33:09:00
TRACK 13 AUDIO
PERFORMER "Воплі Відоплясова"
TITLE "Веселковий твіст"
INDEX 01 36:07:00
TRACK 14 AUDIO
PERFORMER "Воплі Відоплясова"
TITLE "Музіка"
INDEX 01 38:10:00
TRACK 15 AUDIO
PERFORMER "Воплі Відоплясова"
TITLE "Я летів"
INDEX 01 41:47:00
TRACK 16 AUDIO
PERFORMER "Воплі Відоплясова"
TITLE "Трава"
INDEX 01 44:19:00
TRACK 17 AUDIO
PERFORMER "Воплі Відоплясова"
TITLE "АБАПАП"
INDEX 01 47:07:00
TRACK 18 AUDIO
PERFORMER "Воплі Відоплясова"
TITLE "Колись"
INDEX 01 48:50:00
TRACK 19 AUDIO
PERFORMER "Воплі Відоплясова"
TITLE "Країна мрій"
INDEX 01 52:01:00

Спектр

АЧХ

Уровень записи

[1993] Закустика (Украина, Сiнгл-С, 0037)

Год выпуска: 1993
Лейбл: Сiнгл-С, 0037
Страна-производитель: Украина
Продолжительность: 00:17:50
Треклист:
1. Шалена зірка
2. Дитинство це зірка
3. Ти ж мене підманула
4. Розпрягайте хлопці коні
5. Гей, червоні коні
6. Ой ти, Галю, Галю молодая
7. На вулиці скрипка грає
8. Колись
9. Несе Галя воду

CUE

REM DATE 1993
REM COMMENT "MC rip by droman42"
REM COMMENT "Тракт: AIWA AD-F990 -> TASCAM UH-7000 -> Audacity 2.3 (OSX)"
REM COMMENT "Capture: 32/192, release: 24/96"
REM COMMENT "Issue: Ukraine, 1995, Single-S, 0037"
PERFORMER "Воплі Відоплясова"
TITLE "Закустика"
FILE "закустика.flac" WAVE
TRACK 01 AUDIO
PERFORMER "Воплі Відоплясова"
TITLE "Шалена зірка"
INDEX 01 00:00:00
TRACK 02 AUDIO
PERFORMER "Воплі Відоплясова"
TITLE "Дитинство це зірка"
INDEX 01 02:30:00
TRACK 03 AUDIO
PERFORMER "Воплі Відоплясова"
TITLE "Ти ж мене підманула"
INDEX 01 04:22:00
TRACK 04 AUDIO
PERFORMER "Воплі Відоплясова"
TITLE "Розпрягайте хлопці коні"
INDEX 01 06:37:00
TRACK 05 AUDIO
PERFORMER "Воплі Відоплясова"
TITLE "Гей, червоні коні"
INDEX 01 08:35:00
TRACK 06 AUDIO
PERFORMER "Воплі Відоплясова"
TITLE "Ой ти, Галю, Галю молодая"
INDEX 01 10:20:60
TRACK 07 AUDIO
PERFORMER "Воплі Відоплясова"
TITLE "На вулиці скрипка грає"
INDEX 01 12:09:32
TRACK 08 AUDIO
PERFORMER "Воплі Відоплясова"
TITLE "Колись"
INDEX 01 13:23:18
TRACK 09 AUDIO
PERFORMER "Воплі Відоплясова"
TITLE "Несе Галя воду"
INDEX 01 15:37:00

Спектр

АЧХ

Уровень записи

[1998] 10 років першого запису. Касета 1 (Украина, Interkrass Records, IK 027)

Год выпуска: 1998
Лейбл: Interkrass Records, IK 027
Страна-производитель: Украина
Продолжительность: 00:44:24
Треклист:
1. Зв'язок
2. Я підійду
3. Ты ушел
4. Машіна
5. Шалена зірка
6. Пісня
7. АБАБАП
8. Alright
9. Товариш майор
10. Знову зима
11. Галю, приходь
12. Галелуя
13. Мусса
14. Ліда
15. Трава
16. Танго
17. Веселковий твіст
18. Колись
19. Танці

CUE

REM DATE 1998
REM COMMENT "MC rip by droman42"
REM COMMENT "Тракт: AIWA AD-F990 -> TASCAM UH-7000 -> Audacity 2.3 (OSX)"
REM COMMENT "Capture: 32/192, release: 24/96"
REM COMMENT "Issue: Ukraine, Interkrass Records, IK 027"
PERFORMER "Воплi Вiдоплясова"
TITLE "10 років першого запису. Касета 1"
FILE "Касета1.flac" WAVE
TRACK 01 AUDIO
PERFORMER "Воплi Вiдоплясова"
TITLE "Зв'язок"
INDEX 01 00:00:00
TRACK 02 AUDIO
PERFORMER "Воплi Вiдоплясова"
TITLE "Я підійду"
INDEX 01 02:15:50
TRACK 03 AUDIO
PERFORMER "Воплi Вiдоплясова"
TITLE "Ты ушел"
INDEX 01 04:34:00
TRACK 04 AUDIO
PERFORMER "Воплi Вiдоплясова"
TITLE "Машіна"
INDEX 01 07:18:50
TRACK 05 AUDIO
PERFORMER "Воплi Вiдоплясова"
TITLE "Шалена зірка"
INDEX 01 09:43:40
TRACK 06 AUDIO
PERFORMER "Воплi Вiдоплясова"
TITLE "Пісня"
INDEX 01 12:45:40
TRACK 07 AUDIO
PERFORMER "Воплi Вiдоплясова"
TITLE "Абабап"
INDEX 01 15:41:00
TRACK 08 AUDIO
PERFORMER "Воплi Вiдоплясова"
TITLE "Alright"
INDEX 01 17:23:50
TRACK 09 AUDIO
PERFORMER "Воплi Вiдоплясова"
TITLE "Товарищ майор"
INDEX 01 19:58:50
TRACK 10 AUDIO
PERFORMER "Воплi Вiдоплясова"
TITLE "Знову зима"
INDEX 01 22:24:40
TRACK 11 AUDIO
PERFORMER "Воплi Вiдоплясова"
TITLE "Галю, приходь"
INDEX 01 23:59:50
TRACK 12 AUDIO
PERFORMER "Воплi Вiдоплясова"
TITLE "Галелуя"
INDEX 01 26:20:60
TRACK 13 AUDIO
PERFORMER "Воплi Вiдоплясова"
TITLE "Мусса"
INDEX 01 28:41:10
TRACK 14 AUDIO
PERFORMER "Воплi Вiдоплясова"
TITLE "Ліда"
INDEX 01 30:59:60
TRACK 15 AUDIO
PERFORMER "Воплi Вiдоплясова"
TITLE "Трава"
INDEX 01 32:18:50
TRACK 16 AUDIO
PERFORMER "Воплi Вiдоплясова"
TITLE "Танго"
INDEX 01 34:34:30
TRACK 17 AUDIO
PERFORMER "Воплi Вiдоплясова"
TITLE "Веселковий твіст"
INDEX 01 37:08:30
TRACK 18 AUDIO
PERFORMER "Воплi Вiдоплясова"
TITLE "Колись"
INDEX 01 38:55:30
TRACK 19 AUDIO
PERFORMER "Воплi Вiдоплясова"
TITLE "Танці"
INDEX 01 41:48:30

Спектр

АЧХ

Уровень записи

[1998] 10 років першого запису. Касета 2 (Украина, Interkrass Records, IK 028)

Год выпуска: 1998
Лейбл: Interkrass Records, IK 028
Страна-производитель: Украина
Продолжительность: 00:45:26
Треклист:
1. Я летел
2. Приляг
3. Рассвет
4. Спор
5. Муха
6. Конспект
7. Таран
8. Сопливый сезон
9. Капуста
10. В штабе ДНД
11. Налягай
12. Оля
13. Пісенька
14. Дитинство
15. Червоні коні
16. Або або
17. Демоны
18. Плач Ярославни
19. Заднє око
20. Угага

CUE

REM DATE 1998
REM COMMENT "MC rip by droman42"
REM COMMENT "Тракт: AIWA AD-F990 -> TASCAM UH-7000 -> Audacity 2.3 (OSX)"
REM COMMENT "Capture: 32/192, release: 24/96"
REM COMMENT "Issue: Ukraine, Interkrass Records, IK 028"
PERFORMER "Воплi Вiдоплясова"
TITLE "10 років першого запису. Касета 2"
FILE "Касета2.flac" WAVE
TRACK 01 AUDIO
PERFORMER "Воплi Вiдоплясова"
TITLE "Я летел"
INDEX 01 00:00:00
TRACK 02 AUDIO
PERFORMER "Воплi Вiдоплясова"
TITLE "Приляг"
INDEX 01 02:10:00
TRACK 03 AUDIO
PERFORMER "Воплi Вiдоплясова"
TITLE "Рассвет"
INDEX 01 05:27:00
TRACK 04 AUDIO
PERFORMER "Воплi Вiдоплясова"
TITLE "Спор"
INDEX 01 07:35:50
TRACK 05 AUDIO
PERFORMER "Воплi Вiдоплясова"
TITLE "Муха"
INDEX 01 09:40:25
TRACK 06 AUDIO
PERFORMER "Воплi Вiдоплясова"
TITLE "Конспект"
INDEX 01 12:12:20
TRACK 07 AUDIO
PERFORMER "Воплi Вiдоплясова"
TITLE "Таран"
INDEX 01 14:57:00
TRACK 08 AUDIO
PERFORMER "Воплi Вiдоплясова"
TITLE "Сопливый сезон"
INDEX 01 16:35:00
TRACK 09 AUDIO
PERFORMER "Воплi Вiдоплясова"
TITLE "Капуста"
INDEX 01 19:02:00
TRACK 10 AUDIO
PERFORMER "Воплi Вiдоплясова"
TITLE "В штабе ДНД"
INDEX 01 20:21:60
TRACK 11 AUDIO
PERFORMER "Воплi Вiдоплясова"
TITLE "Налягай"
INDEX 01 22:53:00
TRACK 12 AUDIO
PERFORMER "Воплi Вiдоплясова"
TITLE "Оля"
INDEX 01 25:17:00
TRACK 13 AUDIO
PERFORMER "Воплi Вiдоплясова"
TITLE "Пісенька"
INDEX 01 27:37:10
TRACK 14 AUDIO
PERFORMER "Воплi Вiдоплясова"
TITLE "Дитинство"
INDEX 01 31:20:50
TRACK 15 AUDIO
PERFORMER "Воплi Вiдоплясова"
TITLE "Червоні коні"
INDEX 01 33:21:10
TRACK 16 AUDIO
PERFORMER "Воплi Вiдоплясова"
TITLE "Або або"
INDEX 01 35:16:20
TRACK 17 AUDIO
PERFORMER "Воплi Вiдоплясова"
TITLE "Демоны"
INDEX 01 37:48:30
TRACK 18 AUDIO
PERFORMER "Воплi Вiдоплясова"
TITLE "Плач Ярославни"
INDEX 01 39:33:15
TRACK 19 AUDIO
PERFORMER "Воплi Вiдоплясова"
TITLE "Заднє око"
INDEX 01 42:02:00
TRACK 20 AUDIO
PERFORMER "Воплi Вiдоплясова"
TITLE "Угага"
INDEX 01 44:04:40

Спектр

АЧХ

Уровень записи

[1998] 10 років першого запису. Касета 3 (Украина, Interkrass Records, IK 029)

Год выпуска: 1998
Лейбл: Interkrass Records, IK 029
Страна-производитель: Украина
Продолжительность: 00:45:40
Треклист:
1. Політ-рок
2. Чіо-сан
3. Махатма
4. Були деньки
5. Апокаліпсіс
6. Кармен
7. Бенефіс
8. Аяяяй
9. Полонина
10. Галина
11. Яма
12. Білі плями
13. Колискова
14. Краков'як рок
15. Гей, любо

CUE

REM DATE 1998
REM COMMENT "MC rip by droman42"
REM COMMENT "Тракт: AIWA AD-F990 -> TASCAM UH-7000 -> Audacity 2.3 (OSX)"
REM COMMENT "Capture: 32/192, release: 24/96"
REM COMMENT "Issue: Ukraine, Interkrass Records, IK 029"
PERFORMER "Воплi Вiдоплясова"
TITLE "10 років першого запису. Касета 3"
FILE "Касета3.flac" WAVE
TRACK 01 AUDIO
PERFORMER "Воплi Вiдоплясова"
TITLE "Політ-рок"
INDEX 01 00:00:00
TRACK 02 AUDIO
PERFORMER "Воплi Вiдоплясова"
TITLE "Чіо-сан"
INDEX 01 02:03:30
TRACK 03 AUDIO
PERFORMER "Воплi Вiдоплясова"
TITLE "Махатма"
INDEX 01 04:31:00
TRACK 04 AUDIO
PERFORMER "Воплi Вiдоплясова"
TITLE "Були деньки"
INDEX 01 09:14:50
TRACK 05 AUDIO
PERFORMER "Воплi Вiдоплясова"
TITLE "Апокаліпсіс"
INDEX 01 11:33:00
TRACK 06 AUDIO
PERFORMER "Воплi Вiдоплясова"
TITLE "Кармен"
INDEX 01 13:56:25
TRACK 07 AUDIO
PERFORMER "Воплi Вiдоплясова"
TITLE "Бенефіс"
INDEX 01 17:26:15
TRACK 08 AUDIO
PERFORMER "Воплi Вiдоплясова"
TITLE "Аяяяй"
INDEX 01 19:14:50
TRACK 09 AUDIO
PERFORMER "Воплi Вiдоплясова"
TITLE "Полонина"
INDEX 01 22:45:00
TRACK 10 AUDIO
PERFORMER "Воплi Вiдоплясова"
TITLE "Галина"
INDEX 01 25:24:00
TRACK 11 AUDIO
PERFORMER "Воплi Вiдоплясова"
TITLE "Яма"
INDEX 01 28:12:00
TRACK 12 AUDIO
PERFORMER "Воплi Вiдоплясова"
TITLE "Білі плями"
INDEX 01 33:01:50
TRACK 13 AUDIO
PERFORMER "Воплi Вiдоплясова"
TITLE "Колискова"
INDEX 01 35:12:20
TRACK 14 AUDIO
PERFORMER "Воплi Вiдоплясова"
TITLE "Краков'як рок"
INDEX 01 39:29:00
TRACK 15 AUDIO
PERFORMER "Воплi Вiдоплясова"
TITLE "Гей, любо"
INDEX 01 42:27:00

Спектр

АЧХ

Уровень записи

[Цитировать]



Показать сообщения:    

Текущее время: 14-Июл 11:37

Часовой пояс: UTC + 6


Вы не можете начинать темы
Вы не можете отвечать на сообщения
Вы не можете редактировать свои сообщения
Вы не можете удалять свои сообщения
Вы не можете голосовать в опросах
Вы не можете прикреплять файлы к сообщениям
Вы не можете скачивать файлы

!ВНИМАНИЕ!
Сайт не предоставляет электронные версии произведений, а занимается лишь коллекционированием и каталогизацией ссылок, присылаемых и публикуемых на форуме нашими читателями. Если вы являетесь правообладателем какого-либо представленного материала и не желаете, чтобы ссылка на него находилась в нашем каталоге, свяжитесь с нами, и мы незамедлительно удалим ее. Файлы для обмена на трекере предоставлены пользователями сайта, и администрация не несет ответственности за их содержание. Просьба не заливать файлы, защищенные авторскими правами, а также файлы нелегального содержания!