***Уважаемые пользователи и гости !!! Сайт переехал на новый домен Torrents-club.info. Просьба изменить ваши закладки! ***
 
[ Сегодня идет свободное скачивание без начисления Download ]


Статистика раздачи
Качаю: [ 1 ]
Скачал: [ 3 ]
 
   
 
 
 
 
Гарри Поттер и Дары смерти (Часть II) / Harry Potter and the Deathly Hallows: Part 2 / 2011 [4k, HEVC, HDR / Blu-Ray Remux] (2160p) Год выпуска: 2011
Жанр: Фэнтези, приключения, экранизация
Выпущено: США, Великобритания, Heyday Films
Режиссер: Дэвид Йейтс
Продолжительность: 02:10:25
Перевод: Дублированный, авторский
Субтитры: Русские, английские
возраст 12+

В ролях:
Дэниэл Рэдклифф, Руперт Гринт, Эмма Уотсон, Рэйф Файнс, Алан Рикман, Хелена Бонем Картер, Том Фелтон, Гэри Олдман, Майкл Гэмбон, Мэгги Смит, Мэттью Льюис, Эванна Линч, Уорвик Дэвис, Джейсон Айзекс, Бонни Райт, Дэвид Тьюлис, Грэхэм Дафф, Киаран Хайндс, Джули Уолтерс, Расти Гофф, Келли Макдональд, Джордж Харрис, Хелен МакКрори, Джон Хёрт, Бенджамин Нортовер, Хебе Бердсалл, Донал Глисон, Афшан Азад, Девон Мюррэй, Джесси Кейв, Изабелла Лафлэнд
О фильме: Экранизация одноименного романа Дж. К. Роулинг. В грандиозной последней главе битва между добрыми и злыми силами мира волшебников перерастает во всеобщую войну. Ставки ещё никогда не были так высоки, а поиск убежища — столь сложен. И быть может именно Гарри Поттеру придется пожертвовать всем в финальном сражении с Волан-де-Мортом. Способен ли наш герой спасти мир? И всё закончится здесь.
Гарри Поттер и Дары Смерти (Часть 2). Трейлер Русский.
Техданные
Качество
: Blu-Ray Remux (2160p)
Видео: HEVC, HDR, 46.7 Mбит/с, 3840x2160
Аудио: Русский (AC3, 6 ch, 640 Кбит/с), (DTS, 6 ch, 1509 Кбит/с), украинский (AC3, 6 ch, 640 Кбит/с), английский (DTS, 6 ch, 1509 Кбит/с), (DTS-X MA, 8 ch, 3840 Кбит/с)
Релиз
Audio: Dolby AC3 48000Hz 6ch [Russian, AC3 5.1 @ 640 - Дублированный Default] (Dolby AC3, 48.0 kHz, 6 chn)]
Audio: Dolby AC3 48000Hz 6ch [Ukrainian, AC3 5.1 @ 640 - Дублированный (Audio 2) (Dolby AC3, 48.0 kHz, 6 chn)]
Audio: DTS 48000Hz 6ch 6912kbps [Russian, АП (Сербин) (Audio 3) (DTS, 48.0 kHz, 6 chn, 24 bit, 6912.0 kbit/s)]
Audio: DTS 48000Hz 6ch 6912kbps [English, Original (Audio 4) (DTS, 48.0 kHz, 6 chn, 24 bit, 6912.0 kbit/s)]
Audio: DTS 48000Hz 8ch [ORIGINAL] (Audio 5) (DTS, 48.0 kHz, 8 chn, 24 bit)]
Audio: Dolby AC3 48000Hz stereo [English, Audiodescription (Audio 6) (Dolby AC3, 48.0 kHz, 2 chn)]
Субтитры: русские (форсированные, полные), английские (полные)

MediaInfo:

Видео
Идентификатор : 1
Формат : HEVC
Формат/Информация : High Efficiency Video Coding
Профиль формата : Main 10@L5.1@High
Идентификатор кодека : V_MPEGH/ISO/HEVC
Продолжительность : 2 ч. 10 м.
Битрейт : 46,7 Мбит/сек
Ширина : 3840 пикселей
Высота : 2160 пикселей
Соотношение сторон : 16:9
Режим частоты кадров : Постоянный
Частота кадров : 23,976 (24000/1001) кадра/сек
Цветовое пространство : YUV
Субдискретизация насыщенности : 4:2:0 (Type 2)
Битовая глубина : 10 бит
Бит/(Пиксели*Кадры) : 0.235
Размер потока : 42,5 Гбайт (85%)
Default : Да
Forced : Нет
Цветовой диапазон : Limited
Основные цвета : BT.2020
Характеристики трансфера : PQ
Коэффициенты матрицы : BT.2020 non-constant
MasteringDisplay_ColorPrimaries : R: x=0.680000 y=0.320000, G: x=0.265000 y=0.690000, B: x=0.150000 y=0.060000, White point: x=0.312700 y=0.329000
MasteringDisplay_Luminance : min: 0.0050 cd/m2, max: 4000.0000 cd/m2
MaxCLL : 500 cd/m2
MaxFALL : 200 cd/m2
Аудио #1
Идентификатор : 2
Формат : AC-3
Формат/Информация : Audio Coding 3
Параметр Endianness формата : Big
Идентификатор кодека : A_AC3
Продолжительность : 2 ч. 10 м.
Вид битрейта : Постоянный
Битрейт : 640 Кбит/сек
Каналы : 6 каналов
Расположение каналов : Front: L C R, Side: L R, LFE
Частота : 48,0 КГц
Частота кадров : 31,250 кадров/сек (1536 SPF)
Битовая глубина : 16 бит
Метод сжатия : С потерями
Размер потока : 597 Мбайт (1%)
Заголовок : AC3 5.1 @ 640 - Дублированный Blu-ray CEE
Язык : Russian
ServiceKind/String : Complete Main
Default : Да
Forced : Нет
Аудио #2
Идентификатор : 3
Формат : AC-3
Формат/Информация : Audio Coding 3
Параметр Endianness формата : Big
Идентификатор кодека : A_AC3
Продолжительность : 2 ч. 10 м.
Вид битрейта : Постоянный
Битрейт : 640 Кбит/сек
Каналы : 6 каналов
Расположение каналов : Front: L C R, Side: L R, LFE
Частота : 48,0 КГц
Частота кадров : 31,250 кадров/сек (1536 SPF)
Битовая глубина : 16 бит
Метод сжатия : С потерями
Размер потока : 597 Мбайт (1%)
Заголовок : AC3 5. 1@ 640 - Дублированный Blu-ray CEE
Язык : Ukrainian
ServiceKind/String : Complete Main
Default : Нет
Forced : Нет
Аудио #3
Идентификатор : 4
Формат : DTS
Формат/Информация : Digital Theater Systems
Режим : 16
Параметр Endianness формата : Big
Идентификатор кодека : A_DTS
Продолжительность : 2 ч. 10 м.
Вид битрейта : Постоянный
Битрейт : 1509 Кбит/сек
Каналы : 6 каналов
Расположение каналов : Front: L C R, Side: L R, LFE
Частота : 48,0 КГц
Частота кадров : 93,750 кадра/сек (512 SPF)
Битовая глубина : 24 бит
Метод сжатия : С потерями
Размер потока : 1,37 Гбайт (3%)
Заголовок : АП (Сербин)
Язык : Russian
Default : Нет
Forced : Нет
Аудио #4
Идентификатор : 5
Формат : DTS
Формат/Информация : Digital Theater Systems
Режим : 16
Параметр Endianness формата : Big
Идентификатор кодека : A_DTS
Продолжительность : 2 ч. 10 м.
Вид битрейта : Постоянный
Битрейт : 1509 Кбит/сек
Каналы : 6 каналов
Расположение каналов : Front: L C R, Side: L R, LFE
Частота : 48,0 КГц
Частота кадров : 93,750 кадра/сек (512 SPF)
Битовая глубина : 24 бит
Метод сжатия : С потерями
Размер потока : 1,37 Гбайт (3%)
Заголовок : Original
Язык : English
Default : Нет
Forced : Нет
Аудио #5
Идентификатор : 6
Формат : DTS
Формат/Информация : Digital Theater Systems
Профиль формата : X / MA / Core
Режим : 16
Параметр Endianness формата : Big
Идентификатор кодека : A_DTS
Продолжительность : 2 ч. 10 м.
Вид битрейта : Переменный / Переменный / Постоянный
Битрейт : 3840 Кбит/сек / 3840 Кбит/сек / 1509 Кбит/сек
Каналы : Object Based / 8 каналов / 6 каналов
Расположение каналов : Object Based / Front: L C R, Side: L R, Back: L R, LFE / Front: L C R, Side: L R, LFE
Частота : / 48,0 КГц / 48,0 КГц
Частота кадров : 93,750 кадра/сек (512 SPF)
Битовая глубина : / 24 бит / 24 бит
Метод сжатия : / Lossless / Lossy
Размер потока : 3,45 Гбайт (7%)
Заголовок : DTS-X MA [ORIGINAL]
Язык : English
Default : Нет
Forced : Нет
Аудио #6
Идентификатор : 7
Формат : AC-3
Формат/Информация : Audio Coding 3
Режим : Dolby Digital
Параметр Endianness формата : Big
Идентификатор кодека : A_AC3
Продолжительность : 2 ч. 10 м.
Вид битрейта : Постоянный
Битрейт : 192 Кбит/сек
Каналы : 2 канала
Расположение каналов : Front: L R
Частота : 48,0 КГц
Частота кадров : 31,250 кадров/сек (1536 SPF)
Битовая глубина : 16 бит
Метод сжатия : С потерями
Задержка видео : 22 мс.
Размер потока : 179 Мбайт (0%)
Заголовок : Audiodescription
Язык : English
ServiceKind/String : Complete Main
Default : Нет
Forced : Нет
Текст #1
Идентификатор : 8
Формат : UTF-8
Идентификатор кодека : S_TEXT/UTF8
Идентификатор кодека/Информация : UTF-8 Plain Text
Продолжительность : 2 ч. 8 м.
Битрейт : 0 бит/сек
ElementCount : 9
Размер потока : 404 байт (0%)
Заголовок : Forced
Язык : Russian
Default : Да
Forced : Да
Текст #2
Идентификатор : 9
Формат : UTF-8
Идентификатор кодека : S_TEXT/UTF8
Идентификатор кодека/Информация : UTF-8 Plain Text
Продолжительность : 1 ч. 56 м.
Битрейт : 55 бит/сек
ElementCount : 970
Размер потока : 47,1 Кбайт (0%)
Заголовок : Full
Язык : Russian
Default : Нет
Forced : Нет
Текст #3
Идентификатор : 10
Формат : UTF-8
Идентификатор кодека : S_TEXT/UTF8
Идентификатор кодека/Информация : UTF-8 Plain Text
Продолжительность : 2 ч. 9 м.
Битрейт : 32 бит/сек
ElementCount : 1027
Размер потока : 31,1 Кбайт (0%)
Заголовок : SDH
Язык : English
Default : Нет
Forced : Нет
Меню
00:00:00.000 : en:Chapter 1
00:02:58.178 : en:Chapter 2
00:06:21.130 : en:Chapter 3
00:10:21.829 : en:Chapter 4
00:14:27.950 : en:Chapter 5
00:20:05.579 : en:Chapter 6
00:22:47.741 : en:Chapter 7
00:25:38.578 : en:Chapter 8
00:30:46.761 : en:Chapter 9
00:34:33.613 : en:Chapter 10
00:40:32.221 : en:Chapter 11
00:45:52.207 : en:Chapter 12
00:50:15.429 : en:Chapter 13
00:54:40.986 : en:Chapter 14
00:59:01.204 : en:Chapter 15
01:03:42.026 : en:Chapter 16
01:07:06.022 : en:Chapter 17
01:11:24.446 : en:Chapter 18
01:14:38.891 : en:Chapter 19
01:23:40.807 : en:Chapter 20
01:29:17.685 : en:Chapter 21
01:31:24.979 : en:Chapter 22
01:36:37.625 : en:Chapter 23
01:41:09.063 : en:Chapter 24
01:46:42.270 : en:Chapter 25
01:50:18.320 : en:Chapter 26
01:54:16.641 : en:Chapter 27
01:58:12.835 : en:Chapter 28

Скриншоты

[Цитировать]



Показать сообщения:    

Текущее время: 14-Июн 14:45

Часовой пояс: UTC + 6


Вы не можете начинать темы
Вы не можете отвечать на сообщения
Вы не можете редактировать свои сообщения
Вы не можете удалять свои сообщения
Вы не можете голосовать в опросах
Вы не можете прикреплять файлы к сообщениям
Вы не можете скачивать файлы

!ВНИМАНИЕ!
Сайт не предоставляет электронные версии произведений, а занимается лишь коллекционированием и каталогизацией ссылок, присылаемых и публикуемых на форуме нашими читателями. Если вы являетесь правообладателем какого-либо представленного материала и не желаете, чтобы ссылка на него находилась в нашем каталоге, свяжитесь с нами, и мы незамедлительно удалим ее. Файлы для обмена на трекере предоставлены пользователями сайта, и администрация не несет ответственности за их содержание. Просьба не заливать файлы, защищенные авторскими правами, а также файлы нелегального содержания!