***Уважаемые пользователи и гости !!! Сайт переехал на новый домен Torrents-club.info. Просьба изменить ваши закладки! ***
 
[ Сегодня идет свободное скачивание без начисления Download ]


Статистика раздачи
Скачал: [ 4 ]
 
   
 
 
 
 
Гарри Поттер и Дары смерти: Часть 1 / Harry Potter and the Deathly Hallows: Part 1 / 2010 [4k, HEVC, HDR / Blu-Ray Remux] (2160p) Год выпуска: 2010
Жанр: Фэнтези, приключения, экранизация
Выпущено: США, Великобритания, Heyday Films, Warner Bros. Pictures
Режиссер: Дэвид Йейтс
Продолжительность: 02:26:05
Перевод: Дублированный, авторский
Субтитры: Русские, английские
возраст 12+
В ролях: Дэниэл Рэдклифф, Эмма Уотсон, Том Фелтон, Руперт Гринт, Бонни Райт, Алан Рикман, Рэйф Файнс, Хелена Бонем Картер, Майкл Гэмбон, Брендан Глисон, Джеральдин Сомервилль, Робби Колтрейн, Девон Мюррэй, Ник Моран, Джейсон Айзекс, Гай Генри
О фильме: Экранизация одноименного романа Дж. К. Роулинг. Гарри Поттера ждёт самое страшное испытание в жизни - смертельная схватка с Волан-де-Мортом. Ждать помощи не от кого - Гарри одинок, как никогда… Друзья и враги Гарри предстают в совершенно неожиданном свете. Граница между Добром и Злом становится всё призрачнее…
[ur=https://www.youtube.com/watch?v=tP_AhLhG8cE]Гарри Поттер и дары смерти 1 часть - трейлер[/url]
Техданные
Качество
: Blu-Ray Remux (2160p)
Видео: HEVC, HDR, 47.2 Mбит/с, 3840x2160
Аудио: Русский (AC3, 6 ch, 640 Кбит/с), (DTS-HD MA, 6 ch, 3621 Кбит/с), украинский (AC3, 6 ch, 640 Кбит/с) , английский (DTS-X MA, 8 ch, 3683 Кбит/с)
Релиз
Audio: Dolby AC3 48000Hz 6ch [Default] (Dolby AC3, 48.0 kHz, 6 chn)]
Audio: Dolby AC3 48000Hz 6ch [Ukrainian, AC3 5.1@640 - Дублированный (Audio 2) (Dolby AC3, 48.0 kHz, 6 chn)]
Audio: DTS 48000Hz 6ch [Russian, АП (Сербин) (Audio 3) (DTS, 48.0 kHz, 6 chn, 24 bit)]
Audio: DTS 48000Hz 8ch [English, DTS-X ORIGINAL (Audio 4) (DTS, 48.0 kHz, 8 chn, 24 bit)]
Субтитры: Русские (форсированные,полные), английские

MediaInfo:

Видео
Идентификатор : 1
Формат : HEVC
Формат/Информация : High Efficiency Video Coding
Профиль формата : Main 10@L5.1@High
Идентификатор кодека : V_MPEGH/ISO/HEVC
Продолжительность : 2 ч. 26 м.
Битрейт : 47,2 Мбит/сек
Ширина : 3840 пикселей
Высота : 2160 пикселей
Соотношение сторон : 16:9
Режим частоты кадров : Постоянный
Частота кадров : 23,976 (24000/1001) кадра/сек
Цветовое пространство : YUV
Субдискретизация насыщенности : 4:2:0 (Type 2)
Битовая глубина : 10 бит
Бит/(Пиксели*Кадры) : 0.237
Размер потока : 48,1 Гбайт (85%)
Default : Да
Forced : Нет
Цветовой диапазон : Limited
Основные цвета : BT.2020
Характеристики трансфера : PQ
Коэффициенты матрицы : BT.2020 non-constant
MasteringDisplay_ColorPrimaries : R: x=0.680000 y=0.320000, G: x=0.265000 y=0.690000, B: x=0.150000 y=0.060000, White point: x=0.312700 y=0.329000
MasteringDisplay_Luminance : min: 0.0050 cd/m2, max: 4000.0000 cd/m2
MaxCLL : 2632 cd/m2
MaxFALL : 431 cd/m2
Аудио #1
Идентификатор : 2
Формат : AC-3
Формат/Информация : Audio Coding 3
Параметр Endianness формата : Big
Идентификатор кодека : A_AC3
Продолжительность : 2 ч. 26 м.
Вид битрейта : Постоянный
Битрейт : 640 Кбит/сек
Каналы : 6 каналов
Расположение каналов : Front: L C R, Side: L R, LFE
Частота : 48,0 КГц
Частота кадров : 31,250 кадров/сек (1536 SPF)
Битовая глубина : 16 бит
Метод сжатия : С потерями
Размер потока : 669 Мбайт (1%)
Заголовок : AC3 5.1@640 - Дублированный Blu-ray CEE
Язык : Russian
ServiceKind/String : Complete Main
Default : Да
Forced : Нет
Аудио #2
Идентификатор : 3
Формат : AC-3
Формат/Информация : Audio Coding 3
Параметр Endianness формата : Big
Идентификатор кодека : A_AC3
Продолжительность : 2 ч. 26 м.
Вид битрейта : Постоянный
Битрейт : 640 Кбит/сек
Каналы : 6 каналов
Расположение каналов : Front: L C R, Side: L R, LFE
Частота : 48,0 КГц
Частота кадров : 31,250 кадров/сек (1536 SPF)
Битовая глубина : 16 бит
Метод сжатия : С потерями
Размер потока : 669 Мбайт (1%)
Заголовок : AC3 5.1@640 - Дублированный
Язык : Ukrainian
ServiceKind/String : Complete Main
Default : Нет
Forced : Нет
Аудио #3
Идентификатор : 4
Формат : DTS
Формат/Информация : Digital Theater Systems
Профиль формата : MA / Core
Режим : 16
Параметр Endianness формата : Big
Идентификатор кодека : A_DTS
Продолжительность : 2 ч. 26 м.
Вид битрейта : Переменный / Постоянный
Битрейт : 3621 Кбит/сек / 1509 Кбит/сек
Каналы : 6 каналов
Расположение каналов : Front: L C R, Side: L R, LFE
Частота : 48,0 КГц
Частота кадров : 93,750 кадра/сек (512 SPF)
Битовая глубина : 24 бит
Метод сжатия : Без потерь / Lossy
Размер потока : 3,69 Гбайт (6%)
Заголовок : АП (Сербин)
Язык : Russian
Default : Нет
Forced : Нет
Аудио #4
Идентификатор : 5
Формат : DTS
Формат/Информация : Digital Theater Systems
Профиль формата : X / MA / Core
Режим : 16
Параметр Endianness формата : Big
Идентификатор кодека : A_DTS
Продолжительность : 2 ч. 26 м.
Вид битрейта : Переменный / Переменный / Постоянный
Битрейт : 3683 Кбит/сек / 3683 Кбит/сек / 1509 Кбит/сек
Каналы : Object Based / 8 каналов / 6 каналов
Расположение каналов : Object Based / Front: L C R, Side: L R, Back: L R, LFE / Front: L C R, Side: L R, LFE
Частота : / 48,0 КГц / 48,0 КГц
Частота кадров : 93,750 кадра/сек (512 SPF)
Битовая глубина : / 24 бит / 24 бит
Метод сжатия : / Lossless / Lossy
Размер потока : 3,76 Гбайт (7%)
Заголовок : DTS-X ORIGINAL
Язык : English
Default : Нет
Forced : Нет
Текст #1
Идентификатор : 6
Формат : UTF-8
Идентификатор кодека : S_TEXT/UTF8
Идентификатор кодека/Информация : UTF-8 Plain Text
Продолжительность : 1 ч. 47 м.
Битрейт : 0 бит/сек
ElementCount : 8
Размер потока : 418 байт (0%)
Заголовок : Форсированные
Язык : Russian
Default : Да
Forced : Да
Текст #2
Идентификатор : 7
Формат : UTF-8
Идентификатор кодека : S_TEXT/UTF8
Идентификатор кодека/Информация : UTF-8 Plain Text
Продолжительность : 2 ч. 25 м.
Битрейт : 69 бит/сек
ElementCount : 1335
Размер потока : 74,4 Кбайт (0%)
Заголовок : Полные
Язык : Russian
Default : Нет
Forced : Нет
Текст #3
Идентификатор : 8
Формат : UTF-8
Идентификатор кодека : S_TEXT/UTF8
Идентификатор кодека/Информация : UTF-8 Plain Text
Продолжительность : 2 ч. 11 м.
Битрейт : 45 бит/сек
ElementCount : 1278
Размер потока : 44,2 Кбайт (0%)
Заголовок : Full
Язык : English
Default : Нет
Forced : Нет
Меню
00:00:00.000 : en:Chapter 1
00:04:18.466 : en:Chapter 2
00:09:46.586 : en:Chapter 3
00:15:16.165 : en:Chapter 4
00:19:13.527 : en:Chapter 5
00:26:04.187 : en:Chapter 6
00:31:37.729 : en:Chapter 7
00:35:43.266 : en:Chapter 8
00:41:37.495 : en:Chapter 9
00:45:45.576 : en:Chapter 10
00:50:14.052 : en:Chapter 11
00:55:02.674 : en:Chapter 12
00:58:31.132 : en:Chapter 13
01:03:41.317 : en:Chapter 14
01:10:02.156 : en:Chapter 15
01:14:30.883 : en:Chapter 16
01:18:48.807 : en:Chapter 17
01:22:17.557 : en:Chapter 18
01:24:55.048 : en:Chapter 19
01:28:03.152 : en:Chapter 20
01:32:34.131 : en:Chapter 21
01:37:40.187 : en:Chapter 22
01:42:37.526 : en:Chapter 23
01:47:54.092 : en:Chapter 24
01:53:48.071 : en:Chapter 25
01:57:30.918 : en:Chapter 26
02:01:27.947 : en:Chapter 27
02:05:42.117 : en:Chapter 28
02:09:42.691 : en:Chapter 29
02:13:15.988 : en:Chapter 30

Скриншоты

[Цитировать]



Показать сообщения:    

Текущее время: 14-Июн 15:10

Часовой пояс: UTC + 6


Вы не можете начинать темы
Вы не можете отвечать на сообщения
Вы не можете редактировать свои сообщения
Вы не можете удалять свои сообщения
Вы не можете голосовать в опросах
Вы не можете прикреплять файлы к сообщениям
Вы не можете скачивать файлы

!ВНИМАНИЕ!
Сайт не предоставляет электронные версии произведений, а занимается лишь коллекционированием и каталогизацией ссылок, присылаемых и публикуемых на форуме нашими читателями. Если вы являетесь правообладателем какого-либо представленного материала и не желаете, чтобы ссылка на него находилась в нашем каталоге, свяжитесь с нами, и мы незамедлительно удалим ее. Файлы для обмена на трекере предоставлены пользователями сайта, и администрация не несет ответственности за их содержание. Просьба не заливать файлы, защищенные авторскими правами, а также файлы нелегального содержания!