***Уважаемые пользователи и гости !!! Сайт переехал на новый домен Torrents-club.info. Просьба изменить ваши закладки! ***
 
[ Сегодня идет свободное скачивание без начисления Download ]


Статистика раздачи
Нет
 
   
 
 
 
Кислота - Информация
Производство: Россия | Кинокомпания «Слон», TRUEMEN Pictures
Жанр: Драма
Режиссер: Александр Горчилин
Актеры: Филипп Авдеев, Александр Кузнецов, Арина Шевцова, Савва Савельев, Александра Ребенок, Роза Хаируллина, Дмитрий Куличков, Елена Морозова, Алексей Агранович, Софья Синицына
Описание:
Саша и Петя живут безбашенной жизнью музыкантов современной техно-Москвы: громкие вечеринки, взлеты и падения, колесо нестабильных отношений с окружающими и собой. Они — поколение двадцатилетних, которые часто слышали слова «любовь», «семья» и «возможности», но хорошо усвоили лишь чувство разъедающего изнутри одиночества. Но вдруг в их жизни происходит событие, которое заставляет обоих честно взглянуть на себя.


Возраст: 18+ (зрителям, достигшим 18 лет. запрещено для детей)
Дата российской премьеры: 4 октября 2018, «ПРОвзгляд»
Дата выхода DVD/Blu-ray релиза: 9 ноября 2018, «НД Плэй»
Продолжительность: 01:33:36
Перевод: Не требуется, Русский (iTunes)
Файл
Качество видео: WEB-DL Сэмпл
Видео: AVC/H264, 1920x804, 25.000 fps, ~5 238 kb/s
Аудио: AC-3, 6 ch, 384 Kbps (Русский)
Субтитры: Отсутствуют

Mediainfo:

General
Unique ID : 66059773396707445212133446605909696336 (0x31B2A64A3F2AAA8C0F4C2AF183AA9F50)
Complete name : KISLOTA (2018) WEB-DL 1080p).mkv
Format : Matroska
Format version : Version 4
File size : 3.68 GiB
Duration : 1 h 33 min
Overall bit rate : 5 623 kb/s
Movie name : Кислота (2018)
Encoded date : UTC 2018-11-08 19:11:11
Writing application : mkvmerge v27.0.0 ('Metropolis') 64-bit
Writing library : libebml v1.3.6 + libmatroska v1.4.9
Video
ID : 1
Format : AVC
Format/Info : Advanced Video Codec
Format profile : High@L4.1
Format settings : CABAC / 4 Ref Frames
Format settings, CABAC : Yes
Format settings, ReFrames : 4 frames
Codec ID : V_MPEG4/ISO/AVC
Duration : 1 h 33 min
Bit rate : 5 238 kb/s
Width : 1 920 pixels
Height : 804 pixels
Display aspect ratio : 2.40:1
Frame rate mode : Constant
Frame rate : 25.000 FPS
Color space : YUV
Chroma subsampling : 4:2:0
Bit depth : 8 bits
Scan type : Progressive
Bits/(Pixel*Frame) : 0.136
Stream size : 3.42 GiB (93%)
Title : KISLOTA (2018) WEB-DL 1080p
Language : Russian
Default : Yes
Forced : No
Audio
ID : 2
Format : AC-3
Format/Info : Audio Coding 3
Commercial name : Dolby Digital
Codec ID : A_AC3
Duration : 1 h 33 min
Bit rate mode : Constant
Bit rate : 384 kb/s
Channel(s) : 6 channels
Channel layout : L R C LFE Ls Rs
Sampling rate : 48.0 kHz
Frame rate : 31.250 FPS (1536 SPF)
Bit depth : 16 bits
Compression mode : Lossy
Stream size : 257 MiB (7%)
Title : iTunes | KISLOTA (2018) WEB-DL 1080p
Language : Russian
Service kind : Complete Main
Default : Yes
Forced : No

Скриншоты

Скриншоты:

[Цитировать]



Показать сообщения:    

Текущее время: 07-Дек 06:33

Часовой пояс: UTC + 6


Вы не можете начинать темы
Вы не можете отвечать на сообщения
Вы не можете редактировать свои сообщения
Вы не можете удалять свои сообщения
Вы не можете голосовать в опросах
Вы не можете прикреплять файлы к сообщениям
Вы не можете скачивать файлы

!ВНИМАНИЕ!
Сайт не предоставляет электронные версии произведений, а занимается лишь коллекционированием и каталогизацией ссылок, присылаемых и публикуемых на форуме нашими читателями. Если вы являетесь правообладателем какого-либо представленного материала и не желаете, чтобы ссылка на него находилась в нашем каталоге, свяжитесь с нами, и мы незамедлительно удалим ее. Файлы для обмена на трекере предоставлены пользователями сайта, и администрация не несет ответственности за их содержание. Просьба не заливать файлы, защищенные авторскими правами, а также файлы нелегального содержания!