***Уважаемые пользователи и гости !!! Сайт переехал на новый домен Torrents-club.info. Просьба изменить ваши закладки! ***
 
[ Сегодня идет свободное скачивание без начисления Download ]


Статистика раздачи
Нет
 
   
 
 
 
Купчино [1-20 серии из 20] (2018) Оригинальное название: Купчино
Год выпуска: 2018
Жанр: Детектив, криминальный фильм
Выпущено: Россия, Триикс Медиа
Режиссер: Арменак Назикян, Максим Бриус, Виктор Шкуратов, Алан Дзоциев
В ролях: Григорий Некрасов, Алексей Кравченко, Денис Пьянов, Иван Решетняк, Роман Агеев, Вячеслав Аркунов, Елизавета Александрова, Алексей Одинг, Дмитрий Лебедев, Алексей Красноцветов, Егор Шмыга, Екатерина Панасюк, Пётр Харченко, Степан Пивкин, Тина Тарусина, Евгений Лямин, Мария Цветкова, Василий Башмаков, Денис Моисеев, Лора Коробских, Александр Клемантович
О фильме: 1981 год. Несостоявшегося рок-музыканта Фёдора родители перевозят из Москвы в Ленинград, где родственник устраивает его стажёром в опорный пункт милиции. Отношения между свободолюбивым юным музыкантом и его новым начальником, суровым участковым Васильичем, складываются не сразу. Васильич не воспринимает строптивого подчинённого всерьёз, поручая ему мелкие бытовые задания, а Фёдор мечтает покинуть ненавистную службу.
Файл:
Качество: WEBRip
Видео: XviD, ~ 1500 Кбит/с, 720x400
Аудио: AC3, 2 ch, 192 Кбит/с
Продолжительность: 20 x ~ 00:50:00
Язык: Русский
Доп. ин.-ция

Внимание! Раздача ведётся путём добавления новых серий

Раздача ведётся путём добавления новых серий, при каждом добавлении создаётся новый торрент. Чтобы начать докачку новой серии, пользователям необходимо сделать следующее:
- Остановить скачивание.
- Удалить старый торрент у себя из клиента (старые серии удалять не надо).
- Скачать новый торрент и запустить его у себя в клиенте вместо старого, при этом указать клиенту путь в старую папку куда и должно происходить скачивание новых серий.
Ваш клиент при этом должен произвести хеширование (проверку) старой папки (если не производит сам - помогите ему сделать это), и будет докачивать только те серии которых у вас ещё нет. Старые серии при этом не удаляются, а продолжают раздаваться!

MediaInfo:

Общее
Полное имя : D:\моё видио\Купчино (2018)..WEB-DLRip.Files-x\01,Купчино (2018)..WEB-DLRip.Files-x.avi
Формат : AVI
Формат/Информация : Audio Video Interleave
Размер файла : 622 Мбайт
Продолжительность : 51 м.
Общий поток : 1701 Кбит/сек
Программа кодирования : VirtualDubMod 1.5.10.3 | www.virtualdub-fr.org || (build 2550/release)
Библиотека кодирования : VirtualDubMod build 2550/release
Видео
Идентификатор : 0
Формат : MPEG-4 Visual
Профиль формата : Advanced Simple@L5
Параметр BVOP формата : 1
Параметр QPel формата : Нет
Параметр GMC формата : Без точки перехода
Параметр матрицы формата : Выборочная
Идентификатор кодека : XVID
Идентификатор кодека/Подсказка : XviD
Продолжительность : 51 м.
Битрейт : 1500 Кбит/сек
Ширина : 720 пикселей
Высота : 400 пикселей
Соотношение сторон : 16:9
Частота кадров : 25,000 кадров/сек
Цветовое пространство : YUV
Субдискретизация насыщенности : 4:2:0
Битовая глубина : 8 бит
Тип развёртки : Прогрессивная
Метод сжатия : С потерями
Бит/(Пиксели*Кадры) : 0.208
Размер потока : 548 Мбайт (88%)
Библиотека кодирования : XviD 73
Аудио
Идентификатор : 1
Формат : AC-3
Формат/Информация : Audio Coding 3
Расширение режима : CM (complete main)
Параметр Endianness формата : Big
Идентификатор кодека : 2000
Продолжительность : 51 м.
Вид битрейта : Постоянный
Битрейт : 192 Кбит/сек
Каналы : 2 канала
Расположение каналов : Front: L R
Частота : 48,0 КГц
Битовая глубина : 16 бит
Метод сжатия : С потерями
Размер потока : 70,1 Мбайт (11%)
Выравнивание : Разделение по промежуткам
Продолжительность промежутка : 40 мс. (1,00 видеокадр)
Время предзагрузки промежутка : 500 мс.

Скриншоты

Добавлены 1-20 серии.
Сериал залит полностью.


Последний раз редактировалось: papa1951deda (2018-11-24 22:48), всего редактировалось 9 раз(а)

[Цитировать]

Добавлены 19-20 серии.

[Цитировать]



Показать сообщения:    

Текущее время: 30-Ноя 19:16

Часовой пояс: UTC + 6


Вы не можете начинать темы
Вы не можете отвечать на сообщения
Вы не можете редактировать свои сообщения
Вы не можете удалять свои сообщения
Вы не можете голосовать в опросах
Вы не можете прикреплять файлы к сообщениям
Вы не можете скачивать файлы

!ВНИМАНИЕ!
Сайт не предоставляет электронные версии произведений, а занимается лишь коллекционированием и каталогизацией ссылок, присылаемых и публикуемых на форуме нашими читателями. Если вы являетесь правообладателем какого-либо представленного материала и не желаете, чтобы ссылка на него находилась в нашем каталоге, свяжитесь с нами, и мы незамедлительно удалим ее. Файлы для обмена на трекере предоставлены пользователями сайта, и администрация не несет ответственности за их содержание. Просьба не заливать файлы, защищенные авторскими правами, а также файлы нелегального содержания!