***Уважаемые пользователи и гости !!! Сайт переехал на новый домен Torrents-club.info. Просьба изменить ваши закладки! ***
 
[ Сегодня идет свободное скачивание без начисления Download ]


Статистика раздачи
Нет
 
   
 
 
 
Чисто московские убийства [Сезон 2, 1-8 из 8] (2018) WEB-DLRip Оригинальное название: Чисто московские убийства-2
Год выпуска: 2018
Жанр: Детектив
Выпущено: Россия, Маурис Филм
Режиссер: Филипп Коршунов
В ролях: Людмила Чурсина, Сергей Беляев, Дмитрий Мазуров, Татьяна Курова, Ирина Крутик, Александр Яцко, Аглая Тарасова, Дарья Дроздовская, Екатерина Семёнова, Ольга Богданова, Марианна Шульц, Серафима Низовская, Константин Быков, Евгения Бордзиловская, Алла Будницкая
О фильме: Продолжение приключений нашей "мисс Марпл" - Екатерины Власовой (Людмила Чурсина). На этот раз, после вечеринки, устроенной по случаю открытия салона красоты "Виктория", происходит убийство владелицы заведения. Под подозрение попадает сама Екатерина Власова. По мнению следователя Капустина, старого недруга Екатерины, Власова таким образом устранила конкурентку, которая переманивала клиентов...
Файл:
Качество: WEB-DLRip
Видео: XviD, ~ 1500 Кбит/с, 720x400
Аудио: АС3, 2 ch, 192 Кбит/с
Продолжительность: х ~ 00:44:00
Язык: Русский
Доп. ин-ция:

MediaInfo:

Общее
Полное имя : D:\моё видио\Чисто московские убийства-2.(2018).WEB-DLRip.Kinozal-Reliz.by.Olyanchik\01.Чисто московские убийства-2.(2018).WEB-DLRip.Kinozal-Reliz.by.Olyanchik.avi
Формат : AVI
Формат/Информация : Audio Video Interleave
Размер файла : 545 Мбайт
Продолжительность : 44 м.
Общий поток : 1702 Кбит/сек
Программа кодирования : Lavf56.36.100
Видео
Идентификатор : 0
Формат : xvid
Идентификатор кодека : xvid
Продолжительность : 44 м.
Битрейт : 1497 Кбит/сек
Ширина : 720 пикселей
Высота : 400 пикселей
Соотношение сторон : 16:9
Частота кадров : 25,000 кадров/сек
Бит/(Пиксели*Кадры) : 0.208
Размер потока : 479 Мбайт (88%)
Аудио
Идентификатор : 1
Формат : MPEG Audio
Версия формата : Version 1
Профиль формата : Layer 3
Режим : Joint stereo
Расширение режима : MS Stereo
Идентификатор кодека : 55
Идентификатор кодека/Подсказка : MP3
Продолжительность : 44 м.
Вид битрейта : Постоянный
Битрейт : 192 Кбит/сек
Каналы : 2 канала
Частота : 44,1 КГц
Метод сжатия : С потерями
Размер потока : 61,5 Мбайт (11%)
Выравнивание : Соединение по промежуткам
Продолжительность промежутка : 26 мс. (0,65 видеокадр)
Время предзагрузки промежутка : 26 мс.
Библиотека кодирования : LAME3.99.5

Скриншоты

Добавлены 1-8 серии.
2 сезон залит полностью.

[Цитировать]



Показать сообщения:    

Текущее время: 04-Дек 20:39

Часовой пояс: UTC + 6


Вы не можете начинать темы
Вы не можете отвечать на сообщения
Вы не можете редактировать свои сообщения
Вы не можете удалять свои сообщения
Вы не можете голосовать в опросах
Вы не можете прикреплять файлы к сообщениям
Вы не можете скачивать файлы

!ВНИМАНИЕ!
Сайт не предоставляет электронные версии произведений, а занимается лишь коллекционированием и каталогизацией ссылок, присылаемых и публикуемых на форуме нашими читателями. Если вы являетесь правообладателем какого-либо представленного материала и не желаете, чтобы ссылка на него находилась в нашем каталоге, свяжитесь с нами, и мы незамедлительно удалим ее. Файлы для обмена на трекере предоставлены пользователями сайта, и администрация не несет ответственности за их содержание. Просьба не заливать файлы, защищенные авторскими правами, а также файлы нелегального содержания!