***Уважаемые пользователи и гости !!! Сайт переехал на новый домен Torrents-club.info. Просьба изменить ваши закладки! ***
 
[ Сегодня идет свободное скачивание без начисления Download ]


Статистика раздачи
Нет
 
   
 
 
 
Не чужие - Информация
Производство: Россия / Хорошо Продакшн
Жанр: Драма
Режиссер: Вера Глаголева
Актеры: Татьяна Владимирова, Санжар Мади, Анна Капалева, Лилия Волкова, Дмитрий Кривочуров, Иван Титяев, Ольга Прихудайлова, Бибигуль Суюншалина, Наталья Дружинина, Андрей Сидоренко
Описание:
В русской глубинке жизнь словно застыла в 90-х годах. Здесь можно спрятаться от тревог большого мира, залечить душевные раны. Так рассуждает Мила, решив возвратиться в дом матери после неудачной попытки «покорить Москву». Тем временем ее сестра Галя выходит замуж за Рустама, молодого красавца из Средней Азии. Он становится причиной нешуточных страстей между сестрами. Участников этой семейной драмы ожидает страшное прозрение.


Возраст: 16+ (зрителям, достигшим 16 лет)
Дата премьеры в России: 15 ноября 2018
Продолжительность: 01:18:45
Перевод: Не требуется (Русский)
Файл
Качество видео: WEBRip Сэмпл
Видео: AVC/H.264, 1920x1080, ~4790 Kbps
Аудио: AC-3, 2 ch, 224 Kbps
Субтитры: Отсутствуют

MediaInfo:

Общее
Уникальный идентификатор : 229898999703447831741112303959073944612 (0xACF4EFD03F5A4E239D85F0DD384CF424)
Полное имя : E:\Ne chuzhie 2018 WEBRip.mkv
Формат : Matroska
Версия формата : Version 4 / Version 2
Размер файла : 2,70 Гбайт
Продолжительность : 1 ч. 18 м.
Общий поток : 4903 Кбит/сек
Дата кодирования : UTC 2018-11-19 15:54:56
Программа кодирования : mkvmerge v6.9.1 ('Blue Panther') 32bit built on Apr 18 2014 18:15:44
Библиотека кодирования : libebml v1.3.0 + libmatroska v1.4.1 / Lavf57.25.100
Видео
Идентификатор : 1
Формат : AVC
Формат/Информация : Advanced Video Codec
Профиль формата : Baseline@L4
Настройки формата : 1 Ref Frames
Параметр CABAC формата : Нет
Параметр RefFrames формата : 1 кадр
Идентификатор кодека : V_MPEG4/ISO/AVC
Продолжительность : 1 ч. 18 м.
Битрейт : 4790 Кбит/сек
Ширина : 1920 пикселей
Высота : 1080 пикселей
Соотношение сторон : 16:9
Режим частоты кадров : Постоянный
Частота кадров : 24,000 кадра/сек
Цветовое пространство : YUV
Субдискретизация насыщенности : 4:2:0
Битовая глубина : 8 бит
Тип развёртки : Прогрессивная
Бит/(Пиксели*Кадры) : 0.096
Размер потока : 2,52 Гбайт (93%)
Default : Да
Forced : Нет
Аудио
Идентификатор : 2
Формат : AC-3
Формат/Информация : Audio Coding 3
Идентификатор кодека : A_AC3
Продолжительность : 1 ч. 18 м.
Вид битрейта : Постоянный
Битрейт : 224 Кбит/сек
Каналы : 2 канала
Расположение каналов : Front: L R
Частота : 48,0 КГц
Частота кадров : 31,250 кадров/сек (1536 SPF)
Битовая глубина : 16 бит
Метод сжатия : С потерями
Задержка видео : -5 мс.
Размер потока : 126 Мбайт (5%)
Библиотека кодирования : Lavc57.24.102 ac3
Язык : Russian
ServiceKind/String : Complete Main
Default : Да
Forced : Нет

Скриншоты

Скриншоты:

[Цитировать]



Показать сообщения:    

Текущее время: 04-Дек 21:09

Часовой пояс: UTC + 6


Вы не можете начинать темы
Вы не можете отвечать на сообщения
Вы не можете редактировать свои сообщения
Вы не можете удалять свои сообщения
Вы не можете голосовать в опросах
Вы не можете прикреплять файлы к сообщениям
Вы не можете скачивать файлы

!ВНИМАНИЕ!
Сайт не предоставляет электронные версии произведений, а занимается лишь коллекционированием и каталогизацией ссылок, присылаемых и публикуемых на форуме нашими читателями. Если вы являетесь правообладателем какого-либо представленного материала и не желаете, чтобы ссылка на него находилась в нашем каталоге, свяжитесь с нами, и мы незамедлительно удалим ее. Файлы для обмена на трекере предоставлены пользователями сайта, и администрация не несет ответственности за их содержание. Просьба не заливать файлы, защищенные авторскими правами, а также файлы нелегального содержания!