***Уважаемые пользователи и гости !!! Сайт переехал на новый домен Torrents-club.info. Просьба изменить ваши закладки! ***
 
[ Сегодня идет свободное скачивание без начисления Download ]


Статистика раздачи
Нет
 
   
 
 
 
Слоны могут играть в футбол - Информация
Производство: Россия | АРТЛАЙТ, Инвада фильм
Жанр: Мелодрама
Режиссер: Михаил Сегал
Актеры: Владимир Мишуков, Софья Гершевич, Варвара Пахомова, Александра Быстржицкая, Дмитрий Гудочкин, Денис Фомин, Надежда Горелова, Михаил Сегал, Юрий Быков, Ирина Пахомова
Описание:
Попав в город своего детства, Дмитрий встречает юную Машу. Ему за сорок, она школьница. Однако всем известный сюжет «Лолиты» разворачивается по непредсказуемому сценарию.


Возраст: 16+ (зрителям, достигшим 16 лет)
Дата мировой премьеры: 9 Ноября 2018
Дата российской премьеры: 18 октября 2018, «Инвада Фильм»
Цифровой релиз: 22 ноября 2018, «НД Плэй»
Продолжительность: 01:44:58
Перевод: Не требуется, Русский (iTunes)
Файл
Качество видео: WEB-DL 1080p Сэмпл
Видео: AVC/H264, 1920x804 (2.40:1), 25.000 fps, 4 652 Kbps
Аудио: AC3, 6 ch, 384 kbps
Субтитры: Отсутствуют

Mediainfo:

General
Unique ID : 123310565723351304414764218977754844707 (0x5CC4C047FF561C313570C53BC4688E23)
Complete name : SLONY_MOGUT_IGRAT_FUTBOL (2018) WEB-DL 1080p.mkv
Format : Matroska
Format version : Version 4
File size : 3.69 GiB
Duration : 1 h 44 min
Overall bit rate : 5 037 kb/s
Movie name : SLONY_MOGUT_IGRAT_FUTBOL (2018) WEB-DL 1080p
Encoded date : UTC 2018-11-22 02:10:43
Writing application : mkvmerge v27.0.0 ('Metropolis') 64-bit
Writing library : libebml v1.3.6 + libmatroska v1.4.9
Video
ID : 1
Format : AVC
Format/Info : Advanced Video Codec
Format profile : High@L4.1
Format settings : CABAC / 4 Ref Frames
Format settings, CABAC : Yes
Format settings, ReFrames : 4 frames
Codec ID : V_MPEG4/ISO/AVC
Duration : 1 h 44 min
Bit rate : 4 652 kb/s
Width : 1 920 pixels
Height : 804 pixels
Display aspect ratio : 2.40:1
Frame rate mode : Constant
Frame rate : 25.000 FPS
Color space : YUV
Chroma subsampling : 4:2:0
Bit depth : 8 bits
Scan type : Progressive
Bits/(Pixel*Frame) : 0.121
Stream size : 3.41 GiB (92%)
Title : SLONY_MOGUT_IGRAT_FUTBOL (2018) WEB-DL 1080p
Default : Yes
Forced : No
Audio
ID : 2
Format : AC-3
Format/Info : Audio Coding 3
Commercial name : Dolby Digital
Codec ID : A_AC3
Duration : 1 h 44 min
Bit rate mode : Constant
Bit rate : 384 kb/s
Channel(s) : 6 channels
Channel layout : L R C LFE Ls Rs
Sampling rate : 48.0 kHz
Frame rate : 31.250 FPS (1536 SPF)
Bit depth : 16 bits
Compression mode : Lossy
Stream size : 288 MiB (8%)
Title : iTunes | SLONY_MOGUT_IGRAT_FUTBOL (2018) WEB-DL 1080p
Language : Russian
Service kind : Complete Main
Default : Yes
Forced : No

Скриншоты

Скриншоты:

[Цитировать]

Топик был перенесен из форума Новинки кинопроката 2018 (HD Video) в форум Российское / казахстанское кино
Viktor1952



Показать сообщения:    

Текущее время: 23-Май 23:24

Часовой пояс: UTC + 6


Вы не можете начинать темы
Вы не можете отвечать на сообщения
Вы не можете редактировать свои сообщения
Вы не можете удалять свои сообщения
Вы не можете голосовать в опросах
Вы не можете прикреплять файлы к сообщениям
Вы не можете скачивать файлы

!ВНИМАНИЕ!
Сайт не предоставляет электронные версии произведений, а занимается лишь коллекционированием и каталогизацией ссылок, присылаемых и публикуемых на форуме нашими читателями. Если вы являетесь правообладателем какого-либо представленного материала и не желаете, чтобы ссылка на него находилась в нашем каталоге, свяжитесь с нами, и мы незамедлительно удалим ее. Файлы для обмена на трекере предоставлены пользователями сайта, и администрация не несет ответственности за их содержание. Просьба не заливать файлы, защищенные авторскими правами, а также файлы нелегального содержания!