***Уважаемые пользователи и гости !!! Сайт переехал на новый домен Torrents-club.info. Просьба изменить ваши закладки! ***
 
[ Сегодня идет свободное скачивание без начисления Download ]


Статистика раздачи
Нет
 
   
 
 
 
Миссия невыполнима: Последствия / Fallout (IMAX Edition) (2018) [4K, HEVC, HDR, Dolby Vision / Blu-Ray Remux] (2160p) Год выпуска: 2018
Жанр: Боевик, триллер, приключения
Выпущено: США, Китай, Франция, Норвегия, Paramount Pictures, Skydance Media
Режиссер: Кристофер МакКуорри
Продолжительность: 02:27:25
Перевод: Дублированный, авторский
Субтитры: Русские, английские
возраст 16+
В ролях: Том Круз, Ребекка Фергюсон (II), Генри Кавилл, Мишель Монахэн, Ванесса Кирби, Уэс Бентли, Саймон Пегг, Анджела Бассетт, Алек Болдуин, Винг Рэймс

О фильме:
Действие разворачивается вокруг преобразовавшейся террористической организации, которую когда-то ликвидировал Итан Хант. Агенту предстоит вновь столкнуться со старыми врагами и остановить их. Однако порой лучшие намерения приводят к ужасному исходу и в этот раз ряд принятых главным героем решений, сложность ситуации и предательство со стороны союзников, усугубляет положение дел, последствия которых будут губительными для многих людей. Победить в гонке против времени и предотвратить возможную катастрофу Итану Ханту помогают команда и друзья.
Миссия невыполнима 6: Последствия - Русский Трейлер (4k, 2018)
Техданные
Качество: Blu-Ray Remux (2160p)
Видео: MPEG-H HEVC, 61.5 Мбит/с, 3840x2160
Аудио: Русский (AC3, 6 ch, 640 Кбит/с), (DTS-HD MA, 8 ch, 5370 Кбит/с), английский (TrueHD with Dolby Atmos, 8 ch, 5026 Кбит/c), (AC3, 6 ch, 640 Кбит/с), (AC3, 2 ch, 224 Кбит/с)

Релиз

Релиз от Dolby Vision Torrents
Релиз в формате Dolby Vision в контейнере MKV(Profile 8) для совместимости со всеми поддерживаемыми DV устройствами: nVidia Shield Pro 2019, Zidoo/Dune на SOC Realtek RTD1619DR, Ugoos AM6 Plus, Sony XG/XH. Не подтверждено ТВ Philips на Android TV.
Плееры Android TV с поддержкой Dolby Vision: ExoPlayer, ViMu Media Player for TV 8.8.8 и выше, Plex, Just Player, Emby. Kodi на текущий момент проигрывает Dolby Vision только специальной сборкой, доступной на форуме разработчика.
Аудио #2: 48 kHz/24-bit, DTS-HD MA, 7.1 ch, 5370 Kbps |AVO, Живов|
Аудио #5, 6, 7: 48 kHz/24-bit, AC3, 2.0 ch, 224 Kbps |Commentary|
Субтитры: русские (форс., полные), английские (форс., полные, commentary)

MediaInfo:

Общее
Уникальный идентификатор                 : 79768747703471842139435446826578171680 (0x3C02E6E858E9C20AAF0863DC154F5720)
Полное имя                               : \\Slid-NAS\Films\Mission.Impossible.-.Fallout.2018.UHD.BDRemux.2160p.HDR.Dolby_Vision.P8.by.DVT.mkv
Формат                                   : Matroska
Версия формата                           : Version 2
Размер файла                             : 76,1 Гбайт
Продолжительность                        : 2 ч. 27 м.
Режим общего битрейта                    : Переменный
Общий поток                              : 73,9 Мбит/сек
Название фильма                          : Mission: Impossible - Fallout (2018) - Release by Dolby Vision Torrents
Дата кодирования                         : UTC 2021-04-11 07:52:41
Программа кодирования                    : MakeMKV v1.16.3 win(x64-release)
Библиотека кодирования                   : libmakemkv v1.16.3 (1.3.10/1.5.2) win(x64-release)
Видео
Идентификатор                            : 1
Формат                                   : HEVC
Формат/Информация                        : High Efficiency Video Coding
Профиль формата                          : Main 10@L5.1@High
HDR format                               : Dolby Vision, Version 1.0, dvhe.08.06, BL+RPU, Blu-ray compatible / SMPTE ST 2086, HDR10 compatible
Идентификатор кодека                     : V_MPEGH/ISO/HEVC
Продолжительность                        : 2 ч. 27 м.
Битрейт                                  : 61,5 Мбит/сек
Ширина                                   : 3 840 пикселей
Высота                                   : 2 160 пикселей
Соотношение сторон                       : 16:9
Режим частоты кадров                     : Постоянный
Частота кадров                           : 23,976 (24000/1001) кадра/сек
Цветовое пространство                    : YUV
Субдискретизация насыщенности            : 4:2:0 (Type 2)
Битовая глубина                          : 10 бит
Бит/(Пиксели*Кадры)                      : 0.309
Размер потока                            : 63,4 Гбайт (83%)
Заголовок                                : Mission: Impossible - Fallout (2018)
Язык                                     : English
Default                                  : Нет
Forced                                   : Нет
Цветовой диапазон                        : Limited
Основные цвета                           : BT.2020
Характеристики трансфера                 : PQ
Коэффициенты матрицы                     : BT.2020 non-constant
Mastering display color primaries        : Display P3
Mastering display luminance              : min: 0.0001 cd/m2, max: 1000 cd/m2
Аудио #1
Идентификатор                            : 2
Формат                                   : AC-3
Формат/Информация                        : Audio Coding 3
Коммерческое название                    : Dolby Digital
Идентификатор кодека                     : A_AC3
Продолжительность                        : 2 ч. 27 м.
Вид битрейта                             : Постоянный
Битрейт                                  : 640 Кбит/сек
Каналы                                   : 6 каналов
Channel layout                           : L R C LFE Ls Rs
Частота                                  : 48,0 КГц
Частота кадров                           : 31,250 кадров/сек (1536 SPF)
Метод сжатия                             : С потерями
Размер потока                            : 675 Мбайт (1%)
Заголовок                                : Дубляж  - AC3 5.1
Язык                                     : Russian
Service kind                             : Complete Main
Default                                  : Да
Forced                                   : Нет
Аудио #2
Идентификатор                            : 3
Формат                                   : DTS XLL
Формат/Информация                        : Digital Theater Systems
Коммерческое название                    : DTS-HD Master Audio
Идентификатор кодека                     : A_DTS
Продолжительность                        : 2 ч. 27 м.
Вид битрейта                             : Переменный / Постоянный
Битрейт                                  : 5 370 Кбит/сек / 1 509 Кбит/сек
Каналы                                   : 8 каналов / 6 каналов
Channel layout                           : C L R LFE Lb Rb Lss Rss / C L R Ls Rs LFE
Частота                                  : 48,0 КГц
Частота кадров                           : 93,750 кадра/сек (512 SPF)
Битовая глубина                          : 24 бит
Метод сжатия                             : Без потерь / Lossy
Размер потока                            : 5,53 Гбайт (7%)
Заголовок                                : Живов - DTS HD-MA 7.1
Язык                                     : Russian
Default                                  : Нет
Forced                                   : Нет
Аудио #3
Идентификатор                            : 4
Формат                                   : MLP FBA 16-ch
Формат/Информация                        : Meridian Lossless Packing FBA with 16-channel presentation
Коммерческое название                    : Dolby TrueHD with Dolby Atmos
Идентификатор кодека                     : A_TRUEHD
Продолжительность                        : 2 ч. 27 м.
Вид битрейта                             : Переменный
Битрейт                                  : 5 026 Кбит/сек
Максимальный битрейт                     : 8 175 Кбит/сек
Каналы                                   : 8 каналов
Channel layout                           : L R C LFE Ls Rs Lb Rb
Частота                                  : 48,0 КГц
Частота кадров                           : 1 200,000 кадров/сек (40 SPF)
Битовая глубина                          : 24 бит
Метод сжатия                             : Без потерь
Размер потока                            : 5,17 Гбайт (7%)
Заголовок                                : TrueHD with Atmos 7.1
Язык                                     : English
Default                                  : Нет
Forced                                   : Нет
Number of dynamic objects                : 11
Bed channel count                        : 1 канал
Bed channel configuration                : LFE
Аудио #4
Идентификатор                            : 5
Формат                                   : AC-3
Формат/Информация                        : Audio Coding 3
Коммерческое название                    : Dolby Digital
Настройки формата                        : Dolby Surround EX
Идентификатор кодека                     : A_AC3
Продолжительность                        : 2 ч. 27 м.
Вид битрейта                             : Постоянный
Битрейт                                  : 640 Кбит/сек
Каналы                                   : 6 каналов
Channel layout                           : L R C LFE Ls Rs
Частота                                  : 48,0 КГц
Частота кадров                           : 31,250 кадров/сек (1536 SPF)
Метод сжатия                             : С потерями
Размер потока                            : 675 Мбайт (1%)
Заголовок                                : Original - AC3 5.1
Язык                                     : English
Service kind                             : Complete Main
Default                                  : Нет
Forced                                   : Нет
Аудио #5
Идентификатор                            : 6
Формат                                   : AC-3
Формат/Информация                        : Audio Coding 3
Коммерческое название                    : Dolby Digital
Идентификатор кодека                     : A_AC3
Продолжительность                        : 2 ч. 27 м.
Вид битрейта                             : Постоянный
Битрейт                                  : 224 Кбит/сек
Каналы                                   : 2 канала
Channel layout                           : L R
Частота                                  : 48,0 КГц
Частота кадров                           : 31,250 кадров/сек (1536 SPF)
Метод сжатия                             : С потерями
Размер потока                            : 236 Мбайт (0%)
Заголовок                                : Commentary with Christopher McQuarrie and Tom Cruise
Язык                                     : English
Service kind                             : Complete Main
Default                                  : Нет
Forced                                   : Нет
Аудио #6
Идентификатор                            : 7
Формат                                   : AC-3
Формат/Информация                        : Audio Coding 3
Коммерческое название                    : Dolby Digital
Идентификатор кодека                     : A_AC3
Продолжительность                        : 2 ч. 27 м.
Вид битрейта                             : Постоянный
Битрейт                                  : 224 Кбит/сек
Каналы                                   : 2 канала
Channel layout                           : L R
Частота                                  : 48,0 КГц
Частота кадров                           : 31,250 кадров/сек (1536 SPF)
Метод сжатия                             : С потерями
Размер потока                            : 236 Мбайт (0%)
Заголовок                                : Commentary with Christopher McQuarrie and Eddie Hamilton
Язык                                     : English
Service kind                             : Complete Main
Default                                  : Нет
Forced                                   : Нет
Аудио #7
Идентификатор                            : 8
Формат                                   : AC-3
Формат/Информация                        : Audio Coding 3
Коммерческое название                    : Dolby Digital
Идентификатор кодека                     : A_AC3
Продолжительность                        : 2 ч. 27 м.
Вид битрейта                             : Постоянный
Битрейт                                  : 224 Кбит/сек
Каналы                                   : 2 канала
Channel layout                           : L R
Частота                                  : 48,0 КГц
Частота кадров                           : 31,250 кадров/сек (1536 SPF)
Метод сжатия                             : С потерями
Размер потока                            : 236 Мбайт (0%)
Заголовок                                : Commentary with Lorne Balfe
Язык                                     : English
Service kind                             : Complete Main
Default                                  : Нет
Forced                                   : Нет
Текст #1
Идентификатор                            : 9
Формат                                   : UTF-8
Идентификатор кодека                     : S_TEXT/UTF8
Идентификатор кодека/Информация          : UTF-8 Plain Text
Продолжительность                        : 2 ч. 25 м.
Битрейт                                  : 1 бит/сек
Count of elements                        : 36
Размер потока                            : 1,29 Кбайт (0%)
Заголовок                                : Forced
Язык                                     : Russian
Default                                  : Да
Forced                                   : Нет
Текст #2
Идентификатор                            : 10
Формат                                   : UTF-8
Идентификатор кодека                     : S_TEXT/UTF8
Идентификатор кодека/Информация          : UTF-8 Plain Text
Продолжительность                        : 2 ч. 26 м.
Битрейт                                  : 68 бит/сек
Count of elements                        : 1575
Размер потока                            : 73,1 Кбайт (0%)
Заголовок                                : Full
Язык                                     : Russian
Default                                  : Нет
Forced                                   : Нет
Текст #3
Идентификатор                            : 11
Формат                                   : UTF-8
Идентификатор кодека                     : S_TEXT/UTF8
Идентификатор кодека/Информация          : UTF-8 Plain Text
Продолжительность                        : 32 м. 10 с.
Битрейт                                  : 1 бит/сек
Count of elements                        : 20
Размер потока                            : 439 байт (0%)
Заголовок                                : Forced
Язык                                     : English
Default                                  : Нет
Forced                                   : Нет
Текст #4
Идентификатор                            : 12
Формат                                   : UTF-8
Идентификатор кодека                     : S_TEXT/UTF8
Идентификатор кодека/Информация          : UTF-8 Plain Text
Продолжительность                        : 2 ч. 19 м.
Битрейт                                  : 47 бит/сек
Count of elements                        : 1558
Размер потока                            : 48,5 Кбайт (0%)
Заголовок                                : Full
Язык                                     : English
Default                                  : Нет
Forced                                   : Нет
Текст #5
Идентификатор                            : 13
Формат                                   : UTF-8
Идентификатор кодека                     : S_TEXT/UTF8
Идентификатор кодека/Информация          : UTF-8 Plain Text
Продолжительность                        : 2 ч. 27 м.
Битрейт                                  : 134 бит/сек
Count of elements                        : 3475
Размер потока                            : 145 Кбайт (0%)
Заголовок                                : Commentary with Christopher McQuarrie and Tom Cruise
Язык                                     : English
Default                                  : Нет
Forced                                   : Нет
Текст #6
Идентификатор                            : 14
Формат                                   : UTF-8
Идентификатор кодека                     : S_TEXT/UTF8
Идентификатор кодека/Информация          : UTF-8 Plain Text
Продолжительность                        : 2 ч. 25 м.
Битрейт                                  : 136 бит/сек
Count of elements                        : 3272
Размер потока                            : 145 Кбайт (0%)
Заголовок                                : Commentary with Christopher McQuarrie and Eddie Hamilton
Язык                                     : English
Default                                  : Нет
Forced                                   : Нет
Текст #7
Идентификатор                            : 15
Формат                                   : UTF-8
Идентификатор кодека                     : S_TEXT/UTF8
Идентификатор кодека/Информация          : UTF-8 Plain Text
Продолжительность                        : 2 ч. 21 м.
Битрейт                                  : 66 бит/сек
Count of elements                        : 1831
Размер потока                            : 69,3 Кбайт (0%)
Заголовок                                : Commentary with Lorne Balfe
Язык                                     : English
Default                                  : Нет
Forced                                   : Нет
Меню
00:00:00.000                             : :Chapter 01
00:10:37.011                             : :Chapter 02
00:17:11.155                             : :Chapter 03
00:26:57.240                             : :Chapter 04
00:35:56.654                             : :Chapter 05
00:49:18.413                             : :Chapter 06
01:00:00.805                             : :Chapter 07
01:10:23.469                             : :Chapter 08
01:17:07.039                             : :Chapter 09
01:28:28.469                             : :Chapter 10
01:39:09.443                             : :Chapter 11
01:46:26.546                             : :Chapter 12
01:55:45.563                             : :Chapter 13
02:03:10.591                             : :Chapter 14
02:14:00.907                             : :Chapter 15
02:19:48.046                             : :Chapter 16

Скриншоты



Последний раз редактировалось: killer110289 (2021-04-16 13:40), всего редактировалось 3 раз(а)

[Цитировать]

что???серьёзно???70.GB???интересно будет глянуть на скачавших!его пока скачаеш,выйдет следующая часть

[Цитировать]

Ты наверно из села и у тебя интернет через модем?

[Цитировать]



Показать сообщения:    

Текущее время: 04-Дек 22:10

Часовой пояс: UTC + 6


Вы не можете начинать темы
Вы не можете отвечать на сообщения
Вы не можете редактировать свои сообщения
Вы не можете удалять свои сообщения
Вы не можете голосовать в опросах
Вы не можете прикреплять файлы к сообщениям
Вы не можете скачивать файлы

!ВНИМАНИЕ!
Сайт не предоставляет электронные версии произведений, а занимается лишь коллекционированием и каталогизацией ссылок, присылаемых и публикуемых на форуме нашими читателями. Если вы являетесь правообладателем какого-либо представленного материала и не желаете, чтобы ссылка на него находилась в нашем каталоге, свяжитесь с нами, и мы незамедлительно удалим ее. Файлы для обмена на трекере предоставлены пользователями сайта, и администрация не несет ответственности за их содержание. Просьба не заливать файлы, защищенные авторскими правами, а также файлы нелегального содержания!