***Уважаемые пользователи и гости !!! Сайт переехал на новый домен Torrents-club.info. Просьба изменить ваши закладки! ***
 
[ Сегодня идет свободное скачивание без начисления Download ]


Статистика раздачи
Нет
 
   
 
 
 
Миссия невыполнима: Последствия / Mission: Impossible - Fallout (IMAX Edition) (2018) [4K, HEVC, HDR / BDRip] (2160p) Год выпуска: 2018
Жанр: Боевик, триллер, приключения
Выпущено: США, Китай, Франция, Норвегия, Paramount Pictures, Skydance Media
Режиссер: Кристофер МакКуорри
Продолжительность: 02:27:25
Перевод: Дублированный
Субтитры: Русские, английские, украинские
возраст 16+
В ролях: Том Круз, Ребекка Фергюсон (II), Генри Кавилл, Мишель Монахэн, Ванесса Кирби, Уэс Бентли, Саймон Пегг, Анджела Бассетт, Алек Болдуин, Винг Рэймс

О фильме:
Действие разворачивается вокруг преобразовавшейся террористической организации, которую когда-то ликвидировал Итан Хант. Агенту предстоит вновь столкнуться со старыми врагами и остановить их. Однако порой лучшие намерения приводят к ужасному исходу и в этот раз ряд принятых главным героем решений, сложность ситуации и предательство со стороны союзников, усугубляет положение дел, последствия которых будут губительными для многих людей. Победить в гонке против времени и предотвратить возможную катастрофу Итану Ханту помогают команда и друзья.
Миссия невыполнима 6: Последствия - Русский Трейлер (4k, 2018)
Техданные
Качество: BDRip (2160p)
Видео: HEVC, 41100 Кбит/с, 3840x2026, 23.976 Кадр/с, 10 bit
Аудио: Русский (AC3, 6 ch, 640 Кбит/с), украинский (AC3, 2 ch, 160 Кбит/c), английский, (AC3, 6 ch, 640 Кбит/с)

Релиз

Мастер 5
Формат: Main 10@L5.1@High_x265_HDR10
Цветовой праймериз: BT.2020
Характеристики передачи: PQ
Матричные коэффициенты: BT.2020
Освоение основных цветов дисплея: Дисплей P3
Освоение яркости дисплея: мин: 0.0001 cd/m2, max: 1000 cd/m2
Аудио #1: AC-3, 48.0 kHz, 6 ch, 640 kb/s, CBR (Russian) | Дублированный | Лицензия
Аудио #2: AC-3, 48.0 kHz, 2 ch, 160 kb/s, CBR (Ukrainian) | Дублированный | iTunes
Аудио #3: AC-3, 48.0 kHz, 6 ch, 640 kb/s, CBR (English) | Original
Субтитры: Русские (форсированные, полные), украинские (форсированные, полные), английские

MediaInfo:

Общее
Уникальный идентификатор                 : 243770153259204076883394789741406594954 (0xB7646C7C4135DD2FB66B63D552EE278A)
Полное имя                               : F:\Mission.Impossible.Fallout.2018.2160p.BluRay.x265.10bit.HDR.Master5.mkv
Формат                                   : Matroska
Версия формата                           : Version 4
Размер файла                             : 43,8 Гбайт
Продолжительность                        : 2 ч. 27 м.
Общий поток                              : 42,5 Мбит/сек
Название фильма                          : Mission.Impossible.Fallout.2018.2160p.BluRay.x265.10bit.HDR.Master5
Дата кодирования                         : UTC 2018-12-05 15:44:37
Программа кодирования                    : mkvmerge v7.9.0 ('Birds') 64bit
Библиотека кодирования                   : libebml v1.3.1 + libmatroska v1.4.2
Обложка                                  : Yes
Attachments                              : small_cover.jpg / small_cover_land.jpg / cover.jpg / cover_land.jpg
Видео
Идентификатор                            : 1
Формат                                   : HEVC
Формат/Информация                        : High Efficiency Video Coding
Коммерческое название                    : HDR10
Профиль формата                          : Main 10@L5.1@High
Идентификатор кодека                     : V_MPEGH/ISO/HEVC
Продолжительность                        : 2 ч. 27 м.
Битрейт                                  : 41,1 Мбит/сек
Ширина                                   : 3840 пикселей
Высота                                   : 2026 пикселей
Соотношение сторон                       : 1,895
Режим частоты кадров                     : Постоянный
Частота кадров                           : 23,976 (24000/1001) кадра/сек
Цветовое пространство                    : YUV
Субдискретизация насыщенности            : 4:2:0 (Type 2)
Битовая глубина                          : 10 бит
Бит/(Пиксели*Кадры)                      : 0.220
Размер потока                            : 42,3 Гбайт (97%)
Заголовок                                : Mission.Impossible.Fallout.2018.2160p.BluRay.x265.10bit.HDR.Master5
Библиотека кодирования                   : x265 2.8+74-fd517ae68f93:[Windows][GCC 8.2.1][64 bit] 10bit
Настройки программы                      : cpuid=1111039 / frame-threads=16 / numa-pools=24,24,24,24 / wpp / no-pmode / no-pme / no-psnr / no-ssim / log-level=2 / input-csp=1 / input-res=3840x2026 / interlace=0 / total-frames=0 / level-idc=51 / high-tier=1 / uhd-bd=0 / ref=3 / no-allow-non-conformance / repeat-headers / annexb / aud / hrd / info / hash=0 / no-temporal-layers / no-open-gop / min-keyint=1 / keyint=24 / gop-lookahead=0 / bframes=4 / b-adapt=2 / b-pyramid / bframe-bias=0 / rc-lookahead=25 / lookahead-slices=4 / scenecut=40 / radl=0 / no-intra-refresh / ctu=64 / min-cu-size=8 / no-rect / no-amp / max-tu-size=32 / tu-inter-depth=1 / tu-intra-depth=1 / limit-tu=0 / rdoq-level=0 / dynamic-rd=0.00 / no-ssim-rd / signhide / no-tskip / nr-intra=0 / nr-inter=0 / no-constrained-intra / strong-intra-smoothing / max-merge=2 / limit-refs=3 / no-limit-modes / me=1 / subme=2 / merange=57 / temporal-mvp / weightp / no-weightb / no-analyze-src-pics / deblock=0:0 / no-sao / no-sao-non-deblock / rd=3 / no-early-skip / rskip / no-fast-intra / no-tskip-fast / no-cu-lossless / no-b-intra / no-splitrd-skip / rdpenalty=0 / psy-rd=2.00 / psy-rdoq=0.00 / no-rd-refine / no-lossless / cbqpoffs=0 / crqpoffs=0 / rc=crf / crf=16.0 / qcomp=0.60 / qpstep=4 / stats-write=0 / stats-read=0 / vbv-maxrate=160000 / vbv-bufsize=160000 / vbv-init=0.9 / crf-max=0.0 / crf-min=0.0 / ipratio=1.40 / pbratio=1.30 / aq-mode=1 / aq-strength=1.00 / cutree / zone-count=0 / no-strict-cbr / qg-size=32 / no-rc-grain / qpmax=69 / qpmin=0 / no-const-vbv / sar=1 / overscan=0 / videoformat=5 / range=0 / colorprim=9 / transfer=16 / colormatrix=9 / chromaloc=1 / chromaloc-top=2 / chromaloc-bottom=2 / display-window=0 / master-display=G(13250,34500)B(7500,3000)R(34000,16000)WP(15635,16450)L(10000000,01) / max-cll=0,0 / min-luma=0 / max-luma=1023 / log2-max-poc-lsb=8 / vui-timing-info / vui-hrd-info / slices=1 / opt-qp-pps / opt-ref-list-length-pps / no-multi-pass-opt-rps / scenecut-bias=0.05 / no-opt-cu-delta-qp / no-aq-motion / hdr / hdr-opt / no-dhdr10-opt / no-idr-recovery-sei / analysis-reuse-level=5 / scale-factor=0 / refine-intra=0 / refine-inter=0 / refine-mv=0 / no-limit-sao / ctu-info=0 / no-lowpass-dct / refine-mv-type=0 / copy-pic=1 / max-ausize-factor=1.0 / no-dynamic-refine / no-single-sei
Default                                  : Да
Forced                                   : Нет
Цветовой диапазон                        : Limited
Основные цвета                           : BT.2020
Характеристики трансфера                 : PQ
Коэффициенты матрицы                     : BT.2020 non-constant
MasteringDisplay_ColorPrimaries          : Display P3
MasteringDisplay_Luminance               : min: 0.0001 cd/m2, max: 1000 cd/m2
Аудио #1
Идентификатор                            : 2
Формат                                   : AC-3
Формат/Информация                        : Audio Coding 3
Коммерческое название                    : Dolby Digital
Идентификатор кодека                     : A_AC3
Продолжительность                        : 2 ч. 27 м.
Вид битрейта                             : Постоянный
Битрейт                                  : 640 Кбит/сек
Каналы                                   : 6 каналов
Channel layout                           : L R C LFE Ls Rs
Частота                                  : 48,0 КГц
Частота кадров                           : 31,250 кадров/сек (1536 SPF)
Битовая глубина                          : 16 бит
Метод сжатия                             : С потерями
Размер потока                            : 675 Мбайт (2%)
Заголовок                                : Dub License
Язык                                     : Russian
ServiceKind/String                       : Complete Main
Default                                  : Да
Forced                                   : Нет
Аудио #2
Идентификатор                            : 3
Формат                                   : AC-3
Формат/Информация                        : Audio Coding 3
Коммерческое название                    : Dolby Digital
Идентификатор кодека                     : A_AC3
Продолжительность                        : 2 ч. 27 м.
Вид битрейта                             : Постоянный
Битрейт                                  : 160 Кбит/сек
Каналы                                   : 2 канала
Channel layout                           : L R
Частота                                  : 48,0 КГц
Частота кадров                           : 31,250 кадров/сек (1536 SPF)
Битовая глубина                          : 16 бит
Метод сжатия                             : С потерями
Размер потока                            : 169 Мбайт (0%)
Заголовок                                : Tunes
Язык                                     : Ukrainian
ServiceKind/String                       : Complete Main
Default                                  : Нет
Forced                                   : Нет
Аудио #3
Идентификатор                            : 4
Формат                                   : AC-3
Формат/Информация                        : Audio Coding 3
Коммерческое название                    : Dolby Digital
Идентификатор кодека                     : A_AC3
Продолжительность                        : 2 ч. 27 м.
Вид битрейта                             : Постоянный
Битрейт                                  : 640 Кбит/сек
Каналы                                   : 6 каналов
Channel layout                           : L R C LFE Ls Rs
Частота                                  : 48,0 КГц
Частота кадров                           : 31,250 кадров/сек (1536 SPF)
Битовая глубина                          : 16 бит
Метод сжатия                             : С потерями
Задержка видео                           : 32 мс.
Размер потока                            : 675 Мбайт (2%)
Заголовок                                : Original
Язык                                     : English
ServiceKind/String                       : Complete Main
Default                                  : Нет
Forced                                   : Нет
Текст #1
Идентификатор                            : 5
Формат                                   : UTF-8
Идентификатор кодека                     : S_TEXT/UTF8
Идентификатор кодека/Информация          : UTF-8 Plain Text
Продолжительность                        : 2 ч. 25 м.
Битрейт                                  : 1 бит/сек
ElementCount                             : 36
Размер потока                            : 1,29 Кбайт (0%)
Заголовок                                : Forced
Язык                                     : Russian
Default                                  : Да
Forced                                   : Нет
Текст #2
Идентификатор                            : 6
Формат                                   : UTF-8
Идентификатор кодека                     : S_TEXT/UTF8
Идентификатор кодека/Информация          : UTF-8 Plain Text
Продолжительность                        : 2 ч. 26 м.
Битрейт                                  : 68 бит/сек
ElementCount                             : 1575
Размер потока                            : 73,1 Кбайт (0%)
Заголовок                                : Full
Язык                                     : Russian
Default                                  : Нет
Forced                                   : Нет
Текст #3
Идентификатор                            : 7
Формат                                   : UTF-8
Идентификатор кодека                     : S_TEXT/UTF8
Идентификатор кодека/Информация          : UTF-8 Plain Text
Продолжительность                        : 2 ч. 25 м.
Битрейт                                  : 1 бит/сек
ElementCount                             : 37
Размер потока                            : 1,31 Кбайт (0%)
Заголовок                                : Forced
Язык                                     : Ukrainian
Default                                  : Нет
Forced                                   : Нет
Текст #4
Идентификатор                            : 8
Формат                                   : UTF-8
Идентификатор кодека                     : S_TEXT/UTF8
Идентификатор кодека/Информация          : UTF-8 Plain Text
Продолжительность                        : 2 ч. 26 м.
Битрейт                                  : 75 бит/сек
ElementCount                             : 1576
Размер потока                            : 80,7 Кбайт (0%)
Заголовок                                : Full
Язык                                     : Ukrainian
Default                                  : Нет
Forced                                   : Нет
Текст #5
Идентификатор                            : 9
Формат                                   : UTF-8
Идентификатор кодека                     : S_TEXT/UTF8
Идентификатор кодека/Информация          : UTF-8 Plain Text
Продолжительность                        : 2 ч. 19 м.
Битрейт                                  : 53 бит/сек
ElementCount                             : 1854
Размер потока                            : 55,0 Кбайт (0%)
Заголовок                                : SDH
Язык                                     : English
Default                                  : Нет
Forced                                   : Нет
Меню
00:00:00.000                             : en:00:00:00.000
00:10:37.011                             : en:00:10:37.011
00:17:11.405                             : en:00:17:11.405
00:26:57.241                             : en:00:26:57.241
00:35:56.654                             : en:00:35:56.654
00:49:18.414                             : en:00:49:18.414
01:00:00.806                             : en:01:00:00.806
01:10:23.719                             : en:01:10:23.719
01:17:07.289                             : en:01:17:07.289
01:28:28.470                             : en:01:28:28.470
01:39:09.652                             : en:01:39:09.652
01:46:26.547                             : en:01:46:26.547
01:55:45.564                             : en:01:55:45.564
02:03:10.592                             : en:02:03:10.592
02:14:00.908                             : en:02:14:00.908
02:19:48.088                             : en:02:19:48.088

Скриншоты



Последний раз редактировалось: killer110289 (2021-04-16 13:38), всего редактировалось 1 раз

[Цитировать]

Лицензия

[Цитировать]



Показать сообщения:    

Текущее время: 24-Май 03:39

Часовой пояс: UTC + 6


Вы не можете начинать темы
Вы не можете отвечать на сообщения
Вы не можете редактировать свои сообщения
Вы не можете удалять свои сообщения
Вы не можете голосовать в опросах
Вы не можете прикреплять файлы к сообщениям
Вы не можете скачивать файлы

!ВНИМАНИЕ!
Сайт не предоставляет электронные версии произведений, а занимается лишь коллекционированием и каталогизацией ссылок, присылаемых и публикуемых на форуме нашими читателями. Если вы являетесь правообладателем какого-либо представленного материала и не желаете, чтобы ссылка на него находилась в нашем каталоге, свяжитесь с нами, и мы незамедлительно удалим ее. Файлы для обмена на трекере предоставлены пользователями сайта, и администрация не несет ответственности за их содержание. Просьба не заливать файлы, защищенные авторскими правами, а также файлы нелегального содержания!