***Уважаемые пользователи и гости !!! Сайт переехал на новый домен Torrents-club.info. Просьба изменить ваши закладки! ***
 
[ Сегодня идет свободное скачивание без начисления Download ]


Статистика раздачи
Нет
 
   
 
 
 
Вечная жизнь
Александра Христофорова
- Информация
Производство: Россия / «58,5 ПРОДАКШН»
Жанр: Комедия
Режиссер: Евгений Шелякин
Актеры: Алексей Гуськов, Оксана Фандера, Тимофей Трибунцев, Роман Курцын, Игорь Угольников, Лидия Вележева, Полина Пушкарук, Станислав Любшин, Анастасия Сомова, Александр Гох
Описание:
В прошлом Христофоров был звездой театра и кино, теперь он аниматор в курортном городке. Но бывший актер не отчаивается — живет здесь и сейчас. И пусть бывшая жена строит козни, а сын его избегает, Христофоров упорно двигается дальше. После скандального увольнения фортуна делает герою сказочный подарок в виде любимой женщины. Поможет ли судьбоносная встреча изменить жизнь вечного неудачника?


Возраст: 12+ (зрителям, достигшим 12 лет)
Дата мировой премьеры: 23 ноября 2018
Дата премьеры в России: 18 октября 2018
Цифровой релиз: 1 декабря 2018
Продолжительность: 01:44:35
Перевод: Не требуется (Русский) iTunes
Файл
Качество видео: WEB-DL Сэмпл
Видео: AVC/H.264, 1920x806, ~4586 Kbps
Аудио: AC-3, 6 ch, 384 Kbps
Субтитры: Отсутствуют

MediaInfo:

Общее
Уникальный идентификатор : 230597221395882603502806027822416988435 (0xAD7B68CCFD284FB99CE1AE003D370913)
Полное имя : E:\Zhiznj Hristoforova 2018 WEB-DL 1080p-LQ.mkv
Формат : Matroska
Версия формата : Version 2
Размер файла : 3,70 Гбайт
Продолжительность : 1 ч. 44 м.
Общий поток : 5071 Кбит/сек
Дата кодирования : UTC 2018-12-01 11:43:18
Программа кодирования : mkvmerge v7.8.0 ('River Man') 32bit built on Mar 27 2015 16:18:02
Библиотека кодирования : libebml v1.3.1 + libmatroska v1.4.2
Видео
Идентификатор : 1
Формат : AVC
Формат/Информация : Advanced Video Codec
Профиль формата : High@L4
Настройки формата : CABAC / 5 Ref Frames
Параметр CABAC формата : Да
Параметр RefFrames формата : 5 кадров
Идентификатор кодека : V_MPEG4/ISO/AVC
Продолжительность : 1 ч. 44 м.
Битрейт : 4586 Кбит/сек
Ширина : 1920 пикселей
Высота : 806 пикселей
Соотношение сторон : 2,40:1
Режим частоты кадров : Постоянный
Частота кадров : 24,000 кадра/сек
Цветовое пространство : YUV
Субдискретизация насыщенности : 4:2:0
Битовая глубина : 8 бит
Тип развёртки : Прогрессивная
Бит/(Пиксели*Кадры) : 0.123
Размер потока : 3,35 Гбайт (90%)
Заголовок : Вечная жизнь Александра Христофорова
Язык : Russian
Default : Да
Forced : Нет
Цветовой диапазон : Limited
Основные цвета : BT.709
Характеристики трансфера : BT.709
Коэффициенты матрицы : BT.709
Аудио
Идентификатор : 2
Формат : AC-3
Формат/Информация : Audio Coding 3
Идентификатор кодека : A_AC3
Продолжительность : 1 ч. 44 м.
Вид битрейта : Постоянный
Битрейт : 384 Кбит/сек
Каналы : 6 каналов
Расположение каналов : Front: L C R, Side: L R, LFE
Частота : 48,0 КГц
Частота кадров : 31,250 кадров/сек (1536 SPF)
Битовая глубина : 16 бит
Метод сжатия : С потерями
Размер потока : 287 Мбайт (8%)
Заголовок : AC-3; 16 bits 48 Khz; 5.1ch 384 Kbps; CBR
Язык : Russian
ServiceKind/String : Complete Main
Default : Да
Forced : Нет

Скриншоты

Скриншоты:

[Цитировать]



Показать сообщения:    

Текущее время: 22-Май 09:38

Часовой пояс: UTC + 6


Вы не можете начинать темы
Вы не можете отвечать на сообщения
Вы не можете редактировать свои сообщения
Вы не можете удалять свои сообщения
Вы не можете голосовать в опросах
Вы не можете прикреплять файлы к сообщениям
Вы не можете скачивать файлы

!ВНИМАНИЕ!
Сайт не предоставляет электронные версии произведений, а занимается лишь коллекционированием и каталогизацией ссылок, присылаемых и публикуемых на форуме нашими читателями. Если вы являетесь правообладателем какого-либо представленного материала и не желаете, чтобы ссылка на него находилась в нашем каталоге, свяжитесь с нами, и мы незамедлительно удалим ее. Файлы для обмена на трекере предоставлены пользователями сайта, и администрация не несет ответственности за их содержание. Просьба не заливать файлы, защищенные авторскими правами, а также файлы нелегального содержания!