***Уважаемые пользователи и гости !!! Сайт переехал на новый домен Torrents-club.info. Просьба изменить ваши закладки! ***
 
[ Сегодня идет свободное скачивание без начисления Download ]


Статистика раздачи
Нет
 
   
 
 
 
Black Violin - Black Violin (2007)- Год: 2007
Жанр: Hip-hop, Classical
Продолжительность: 00:59:57
Кодек: FLAC
Битрейт: Lossless
Тип рипа: tracks+.cue
Описание:
Black Violin - это дуэт афроамериканских скрипачей-виртуозов из Флориды - Kev Marcus и Wil B, играющих на скрипках современную, совершенно потрясающую музыку. В 2007 году они выпустили альбом под названием «Black Violin», в который вошли 16 треков. в записи одной из этих композиций (а именно «I’m A Ryder») участвовал DMX.
Треклист:
01. Brandenburg [03:33]
02. Jammin [03:21]
03. Sleepin [03:46]
04. No Words [04:11]
05. Don't Wanna Lose You [03:56]
06. Dirty Orchestra [02:49]
07. All For You [02:37]
08. Chance [04:16]
09. My Story [03:58]
10. I'm A Ryder (feat. DMX) [03:02]
11. Get Down [03:51]
12. Inspiration [03:51]
13. Fanfare [03:48]
14. Good Music [03:26]
15. Missing You [04:50]
16. Gypsy [04:42]

Отчёт ЕАС:

Exact Audio Copy V0.99 prebeta 4 from 23. January 2008
EAC extraction logfile from 19. February 2009, 15:50
Black Violin / Black Violin
Used drive : HL-DT-STDVD-RAM GSA-H55L Adapter: 0 ID: 0
Read mode : Secure
Utilize accurate stream : Yes
Defeat audio cache : Yes
Make use of C2 pointers : No
Read offset correction : 6
Overread into Lead-In and Lead-Out : No
Fill up missing offset samples with silence : Yes
Delete leading and trailing silent blocks : No
Null samples used in CRC calculations : Yes
Used interface : Native Win32 interface for Win NT & 2000
Gap handling : Appended to previous track
Used output format : User Defined Encoder
Selected bitrate : 320 kBit/s
Quality : High
Add ID3 tag : No
Command line compressor : C:\Program Files\Exact Audio Copy\Flac\flac.exe
Additional command line options : -V -8 -T "artist=%a" -T "title=%t" -T "album=%g" -T "date=%y" -T "tracknumber=%n" -T "genre=%m" %s
TOC of the extracted CD
Track | Start | Length | Start sector | End sector
---------------------------------------------------------
1 | 0:00.00 | 3:33.19 | 0 | 15993
2 | 3:33.19 | 3:20.70 | 15994 | 31063
3 | 6:54.14 | 3:45.62 | 31064 | 48000
4 | 10:40.01 | 4:11.03 | 48001 | 66828
5 | 14:51.04 | 3:55.43 | 66829 | 84496
6 | 18:46.47 | 2:48.41 | 84497 | 97137
7 | 21:35.13 | 2:37.27 | 97138 | 108939
8 | 24:12.40 | 4:15.70 | 108940 | 128134
9 | 28:28.35 | 3:58.29 | 128135 | 146013
10 | 32:26.64 | 3:01.40 | 146014 | 159628
11 | 35:28.29 | 3:50.49 | 159629 | 176927
12 | 39:19.03 | 3:50.60 | 176928 | 194237
13 | 43:09.63 | 3:47.39 | 194238 | 211301
14 | 46:57.27 | 3:26.20 | 211302 | 226771
15 | 50:23.47 | 4:49.46 | 226772 | 248492
16 | 55:13.18 | 4:42.19 | 248493 | 269661
Track 1
Filename C:\Documents and Settings\EpicAnon\My Documents\My Music\Black Violin FLAC\01 - Brandenburg.wav
Pre-gap length 0:00:02.00
Peak level 99.9 %
Track quality 100.0 %
Test CRC 5E3AD6C7
Copy CRC 5E3AD6C7
Copy OK
Track 2
Filename C:\Documents and Settings\EpicAnon\My Documents\My Music\Black Violin FLAC\02 - Jammin.wav
Pre-gap length 0:00:01.19
Peak level 99.9 %
Track quality 99.9 %
Test CRC D797F121
Copy CRC D797F121
Copy OK
Track 3
Filename C:\Documents and Settings\EpicAnon\My Documents\My Music\Black Violin FLAC\03 - Sleepin.wav
Pre-gap length 0:00:00.67
Peak level 99.9 %
Track quality 99.9 %
Test CRC FD385173
Copy CRC FD385173
Copy OK
Track 4
Filename C:\Documents and Settings\EpicAnon\My Documents\My Music\Black Violin FLAC\04 - No Words.wav
Pre-gap length 0:00:00.58
Peak level 99.9 %
Track quality 99.9 %
Test CRC 00BD40A5
Copy CRC 00BD40A5
Copy OK
Track 5
Filename C:\Documents and Settings\EpicAnon\My Documents\My Music\Black Violin FLAC\05 - Don't Wanna Lose You.wav
Pre-gap length 0:00:00.52
Peak level 99.9 %
Track quality 100.0 %
Test CRC B050B687
Copy CRC B050B687
Copy OK
Track 6
Filename C:\Documents and Settings\EpicAnon\My Documents\My Music\Black Violin FLAC\06 - Dirty Orchestra.wav
Pre-gap length 0:00:00.30
Peak level 99.9 %
Track quality 100.0 %
Test CRC 80A1E2D3
Copy CRC 80A1E2D3
Copy OK
Track 7
Filename C:\Documents and Settings\EpicAnon\My Documents\My Music\Black Violin FLAC\07 - All For You.wav
Pre-gap length 0:00:01.74
Peak level 99.9 %
Track quality 100.0 %
Test CRC 10FEE2BD
Copy CRC 10FEE2BD
Copy OK
Track 8
Filename C:\Documents and Settings\EpicAnon\My Documents\My Music\Black Violin FLAC\08 - Chance.wav
Pre-gap length 0:00:01.74
Peak level 99.9 %
Track quality 100.0 %
Test CRC DED1BCD3
Copy CRC DED1BCD3
Copy OK
Track 9
Filename C:\Documents and Settings\EpicAnon\My Documents\My Music\Black Violin FLAC\09 - My Story.wav
Pre-gap length 0:00:00.41
Peak level 99.9 %
Track quality 100.0 %
Test CRC D088B852
Copy CRC D088B852
Copy OK
Track 10
Filename C:\Documents and Settings\EpicAnon\My Documents\My Music\Black Violin FLAC\10 - I'm A Ryder (feat. DMX).wav
Pre-gap length 0:00:00.35
Peak level 99.9 %
Track quality 100.0 %
Test CRC 65E86BD1
Copy CRC 65E86BD1
Copy OK
Track 11
Filename C:\Documents and Settings\EpicAnon\My Documents\My Music\Black Violin FLAC\11 - Get Down.wav
Pre-gap length 0:00:01.35
Peak level 99.9 %
Track quality 100.0 %
Test CRC ADEFB8AC
Copy CRC ADEFB8AC
Copy OK
Track 12
Filename C:\Documents and Settings\EpicAnon\My Documents\My Music\Black Violin FLAC\12 - Inspiration.wav
Pre-gap length 0:00:00.59
Peak level 99.9 %
Track quality 99.9 %
Test CRC 83793860
Copy CRC 83793860
Copy OK
Track 13
Filename C:\Documents and Settings\EpicAnon\My Documents\My Music\Black Violin FLAC\13 - Fanfare.wav
Pre-gap length 0:00:01.21
Peak level 99.9 %
Track quality 100.0 %
Test CRC E620F52B
Copy CRC E620F52B
Copy OK
Track 14
Filename C:\Documents and Settings\EpicAnon\My Documents\My Music\Black Violin FLAC\14 - Good Music.wav
Pre-gap length 0:00:00.62
Peak level 99.9 %
Track quality 100.0 %
Test CRC 526F3876
Copy CRC 526F3876
Copy OK
Track 15
Filename C:\Documents and Settings\EpicAnon\My Documents\My Music\Black Violin FLAC\15 - Missing You.wav
Pre-gap length 0:00:01.32
Peak level 99.9 %
Track quality 100.0 %
Test CRC 6AFFC3A4
Copy CRC 6AFFC3A4
Copy OK
Track 16
Filename C:\Documents and Settings\EpicAnon\My Documents\My Music\Black Violin FLAC\16 - Gypsy.wav
Pre-gap length 0:00:01.74
Peak level 99.9 %
Track quality 99.9 %
Test CRC 2E80E2EA
Copy CRC 2E80E2EA
Copy OK
No errors occurred
End of status report

Отчёт auCDtect Task manager:

-----------------------
DON'T MODIFY THIS FILE
-----------------------
PERFORMER: auCDtect Task Manager, ver. 1.5.1RC6 build 1.5.1.7
Copyright (c) 2008-2010 y-soft. All rights reserved
http://y-soft.org
ANALYZER: auCDtect: CD records authenticity detector, version 0.8.2
Copyright (c) 2004 Oleg Berngardt. All rights reserved.
Copyright (c) 2004 Alexander Djourik. All rights reserved.
FILE: 16 - Gypsy.flac
Size: 33366907 Hash: 0AB85EBE76E98626FE7CB502A0B9B43E Accuracy: -m0
Conclusion: CDDA 100%
Signature: BA826CEFDD497A84C0C438A2A8A44CDC8D083B77
FILE: 15 - Missing You.flac
Size: 33754992 Hash: 2DDF5338258741B4E09F2F3F9D234339 Accuracy: -m0
Conclusion: CDDA 100%
Signature: AC0D718292074B490FDDA21B1747EF84476FB77B
FILE: 14 - Good Music.flac
Size: 24954310 Hash: 75EC9CE4D8A160413C5553CF0DCEC33B Accuracy: -m0
Conclusion: CDDA 100%
Signature: BC3B0C449516889201D827A47D740FA15080319F
FILE: 13 - Fanfare.flac
Size: 25580042 Hash: 1833E776D60F9EAA8AB63AAB6F0374CF Accuracy: -m0
Conclusion: CDDA 100%
Signature: 566CCEED03C14D2D8FF81F99FC2E77B5EFBEA206
FILE: 12 - Inspiration.flac
Size: 26456321 Hash: 370E54CFD0BB6A6300EFCD9430EDE488 Accuracy: -m0
Conclusion: CDDA 100%
Signature: CCE95B525EFFC7669A82A7484625D3A32E7E1A91
FILE: 11 - Get Down.flac
Size: 27482472 Hash: 5DD30FE12F54840A34667580B3CDD04B Accuracy: -m0
Conclusion: CDDA 100%
Signature: 2C2FC5D5B68E56F43E8F7357F416F4D396869C2C
FILE: 10 - I'm A Ryder (feat. DMX).flac
Size: 22466024 Hash: 91A17128142F144EB6408CD757CA6602 Accuracy: -m0
Conclusion: CDDA 100%
Signature: BD70AD1EC47949458EE629131E1D8362126CB1EC
FILE: 09 - My Story.flac
Size: 28929786 Hash: E3A8EF462CD5A7368B396136FC18192C Accuracy: -m0
Conclusion: CDDA 100%
Signature: 3B04AABF03EAA59B35C9713B0EBBDA74A81F33D8
FILE: 08 - Chance.flac
Size: 31072998 Hash: AED22066F08B1EB6A81D50B1CC1A021F Accuracy: -m0
Conclusion: CDDA 100%
Signature: 65EE615A94D8E36ED6BD986123D683EB352F8F17
FILE: 07 - All For You.flac
Size: 20628609 Hash: 1A8335E329069CAFD1C13B79F17106DF Accuracy: -m0
Conclusion: CDDA 100%
Signature: 235B82764C0E251335C4763691291D621201C072
FILE: 06 - Dirty Orchestra.flac
Size: 22944689 Hash: CFB1ADB2FBD95866EF51E2D7F89B4DD2 Accuracy: -m0
Conclusion: CDDA 100%
Signature: 70E34D7E04843029BDCA08F7E78D76E51FC795D2
FILE: 05 - Don't Wanna Lose You.flac
Size: 27067470 Hash: 0C268516CC108D2B01175BFCCB417105 Accuracy: -m0
Conclusion: CDDA 100%
Signature: D47E1A301BD02CFB8007DCE6C48CCCD421762838
FILE: 04 - No Words.flac
Size: 32975793 Hash: 8063B36C84E26B1F4E579E0CA51BE4C9 Accuracy: -m0
Conclusion: CDDA 99%
Signature: 2945A812B045D9E6671337EBDCC0C89FC383F33E
FILE: 03 - Sleepin.flac
Size: 27522999 Hash: 379482EB04B64C71DAB84D10E2C58A05 Accuracy: -m0
Conclusion: CDDA 100%
Signature: 5E08980C28AAC3EBA03809BC6DA23F7CD5F9EEC0
FILE: 02 - Jammin.flac
Size: 22891656 Hash: ACAFAE3375CCC9AB1F7A963A99EC4880 Accuracy: -m0
Conclusion: CDDA 99%
Signature: 900293EFDF5206C2807139279F9AE1D12497A458
FILE: 01 - Brandenburg.flac
Size: 24030751 Hash: 5A8CF268067A9484C1CDC0C59E41757B Accuracy: -m0
Conclusion: CDDA 100%
Signature: CB48DE5C34BFECA0C583D3C4B5C4F32DD4D76AE6

[Цитировать]



Показать сообщения:    

Текущее время: 01-Дек 20:10

Часовой пояс: UTC + 6


Вы не можете начинать темы
Вы не можете отвечать на сообщения
Вы не можете редактировать свои сообщения
Вы не можете удалять свои сообщения
Вы не можете голосовать в опросах
Вы не можете прикреплять файлы к сообщениям
Вы не можете скачивать файлы

!ВНИМАНИЕ!
Сайт не предоставляет электронные версии произведений, а занимается лишь коллекционированием и каталогизацией ссылок, присылаемых и публикуемых на форуме нашими читателями. Если вы являетесь правообладателем какого-либо представленного материала и не желаете, чтобы ссылка на него находилась в нашем каталоге, свяжитесь с нами, и мы незамедлительно удалим ее. Файлы для обмена на трекере предоставлены пользователями сайта, и администрация не несет ответственности за их содержание. Просьба не заливать файлы, защищенные авторскими правами, а также файлы нелегального содержания!