***Уважаемые пользователи и гости !!! Сайт переехал на новый домен Torrents-club.info. Просьба изменить ваши закладки! ***
 
[ Сегодня идет свободное скачивание без начисления Download ]


Статистика раздачи
Нет
 
   
 
 
 
Хищник / The Predator / 2018 [4K, HEVC, HDR / WEBRip] (2160p) Год выпуска: 2018
Жанр: Ужасы, фантастика, боевик, триллер, приключения
Выпущено: США, Канада, Twentieth Century Fox, Davis Entertainment, TSG Entertainment
Режиссер: Шейн Блэк
Продолжительность: 01:47:28
Перевод: Дублированный, профессиональный многоголосый
Субтитры: Русские, английские
возраст 18+
В ролях: Бойд Холбрук, Треванте Роудс, Джейкоб Трамбле, Кигэн-Майкл Ки, Оливия Манн, Стерлинг К. Браун, Томас Джейн, Элфи Оуэн-Аллен, Августо Агилера, Джейк Бьюзи

О фильме:
Главный герой, бывший морпех, обнаруживает злобную инопланетную расу на Земле, но никто не верит ему, что эти твари существуют. Его сын-аутист, которого все обижают в школе, становится ключевой фигурой в схватке с Хищниками, поскольку мальчик умеет невероятно быстро учить языки и, судя по всему, сможет понять пришельцев.
ХИЩНИК
Техданные
Качество: WEBRip (2160p)
Видео: HEVC, 23.7 Mбит/с, 3840x1604
Аудио: Русский (AC3, 6 ch, 384 Кбит/с), (AC3, 2 ch, 160 Кбит/с), английский (E-AC3, 6 ch, 640 Кбит/с)
Релиз
Перевод:
#1: Дублированный | [iTunes]
#2: Профессиональный многоголосый | [HDRezka Studio]
Субтитры: Русские (форсированные, полные), английские (полные)
Релиз без рекламы!!!

MediaInfo:

General
Unique ID : 2872552158302254041808535487120501458 (0x2293BC188C6FAEFB84B6B0BB1E16AD2)
Complete name : D:\Video111\The.Predator.2018.WEBRip.2160p.HDR.selezen.mkv
Format : Matroska
Format version : Version 4
File size : 18.7 GiB
Duration : 1 h 47 min
Overall bit rate : 24.9 Mb/s
Movie name : The Predator 2018 from селезень
Encoded date : UTC 2018-12-06 21:02:39
Writing application : mkvmerge v29.0.0 ('Like It Or Not') 64-bit
Writing library : libebml v1.3.6 + libmatroska v1.4.9
Video
ID : 1
Format : HEVC
Format/Info : High Efficiency Video Coding
Commercial name : HDR10
Format profile : Main 10@L5@Main
Codec ID : V_MPEGH/ISO/HEVC
Duration : 1 h 47 min
Bit rate : 23.7 Mb/s
Width : 3 840 pixels
Height : 1 604 pixels
Display aspect ratio : 2.40:1
Frame rate mode : Constant
Frame rate : 23.976 (24000/1001) FPS
Color space : YUV
Chroma subsampling : 4:2:0
Bit depth : 10 bits
Bits/(Pixel*Frame) : 0.161
Stream size : 17.8 GiB (95%)
Language : English
Default : Yes
Forced : No
Color range : Limited
Color primaries : BT.2020
Transfer characteristics : PQ
Matrix coefficients : BT.2020 non-constant
Mastering display color pri : BT.2020
Mastering display luminance : min: 0.0050 cd/m2, max: 1000 cd/m2
Maximum Content Light Level : 2360 cd/m2
Maximum Frame-Average Light : 905 cd/m2
Audio #1
ID : 2
Format : AC-3
Format/Info : Audio Coding 3
Commercial name : Dolby Digital
Codec ID : A_AC3
Duration : 1 h 46 min
Bit rate mode : Constant
Bit rate : 384 kb/s
Channel(s) : 6 channels
Channel layout : L R C LFE Ls Rs
Sampling rate : 48.0 kHz
Frame rate : 31.250 FPS (1536 SPF)
Bit depth : 16 bits
Compression mode : Lossy
Stream size : 294 MiB (2%)
Title : iTunes
Language : Russian
Service kind : Complete Main
Default : Yes
Forced : Yes
Audio #2
ID : 3
Format : AC-3
Format/Info : Audio Coding 3
Commercial name : Dolby Digital
Codec ID : A_AC3
Duration : 1 h 46 min
Bit rate mode : Constant
Bit rate : 160 kb/s
Channel(s) : 2 channels
Channel layout : L R
Sampling rate : 48.0 kHz
Frame rate : 31.250 FPS (1536 SPF)
Bit depth : 16 bits
Compression mode : Lossy
Stream size : 122 MiB (1%)
Title : MVO [HDRezka Studio]
Language : Russian
Service kind : Complete Main
Default : No
Forced : No
Audio #3
ID : 4
Format : E-AC-3
Format/Info : Enhanced AC-3
Commercial name : Dolby Digital Plus
Codec ID : A_EAC3
Duration : 1 h 46 min
Bit rate mode : Constant
Bit rate : 640 kb/s
Channel(s) : 6 channels
Channel layout : L R C LFE Ls Rs
Sampling rate : 48.0 kHz
Frame rate : 31.250 FPS (1536 SPF)
Compression mode : Lossy
Delay relative to video : 27 ms
Stream size : 489 MiB (3%)
Title : Original
Language : English
Service kind : Complete Main
Default : No
Forced : No
Text #1
ID : 5
Format : UTF-8
Codec ID : S_TEXT/UTF8
Codec ID/Info : UTF-8 Plain Text
Duration : 1 h 45 min
Bit rate : 1 b/s
Count of elements : 22
Stream size : 1.02 KiB (0%)
Title : Forced
Language : Russian
Default : Yes
Forced : Yes
Text #2
ID : 6
Format : UTF-8
Codec ID : S_TEXT/UTF8
Codec ID/Info : UTF-8 Plain Text
Duration : 1 h 45 min
Bit rate : 70 b/s
Count of elements : 1270
Stream size : 54.4 KiB (0%)
Title : Full
Language : Russian
Default : No
Forced : No
Text #3
ID : 7
Format : UTF-8
Codec ID : S_TEXT/UTF8
Codec ID/Info : UTF-8 Plain Text
Duration : 1 h 38 min
Bit rate : 49 b/s
Count of elements : 1366
Stream size : 35.6 KiB (0%)
Title : Full
Language : English
Default : No
Forced : No
Menu
00:00:00.000 : en:Chapter 01
00:02:01.705 : en:Chapter 02
00:08:33.930 : en:Chapter 03
00:09:46.335 : en:Chapter 04
00:13:48.660 : en:Chapter 05
00:16:10.176 : en:Chapter 06
00:17:37.429 : en:Chapter 07
00:20:22.469 : en:Chapter 08
00:25:02.957 : en:Chapter 09
00:27:37.277 : en:Chapter 10
00:31:11.074 : en:Chapter 11
00:36:24.345 : en:Chapter 12
00:38:01.650 : en:Chapter 13
00:39:43.543 : en:Chapter 14
00:44:35.710 : en:Chapter 15
00:49:16.907 : en:Chapter 16
00:53:19.608 : en:Chapter 17
00:58:35.507 : en:Chapter 18
00:59:59.507 : en:Chapter 19
01:03:17.288 : en:Chapter 20
01:06:37.821 : en:Chapter 21
01:09:52.015 : en:Chapter 22
01:12:27.628 : en:Chapter 23
01:15:56.628 : en:Chapter 24
01:18:53.680 : en:Chapter 25
01:21:25.623 : en:Chapter 26
01:23:09.935 : en:Chapter 27
01:27:09.799 : en:Chapter 28
01:30:56.233 : en:Chapter 29
01:32:15.812 : en:Chapter 30
01:35:09.402 : en:Chapter 31
01:40:01.193 : en:Chapter 32

Скриншоты

[Цитировать]



Показать сообщения:    

Текущее время: 30-Ноя 21:00

Часовой пояс: UTC + 6


Вы не можете начинать темы
Вы не можете отвечать на сообщения
Вы не можете редактировать свои сообщения
Вы не можете удалять свои сообщения
Вы не можете голосовать в опросах
Вы не можете прикреплять файлы к сообщениям
Вы не можете скачивать файлы

!ВНИМАНИЕ!
Сайт не предоставляет электронные версии произведений, а занимается лишь коллекционированием и каталогизацией ссылок, присылаемых и публикуемых на форуме нашими читателями. Если вы являетесь правообладателем какого-либо представленного материала и не желаете, чтобы ссылка на него находилась в нашем каталоге, свяжитесь с нами, и мы незамедлительно удалим ее. Файлы для обмена на трекере предоставлены пользователями сайта, и администрация не несет ответственности за их содержание. Просьба не заливать файлы, защищенные авторскими правами, а также файлы нелегального содержания!