***Уважаемые пользователи и гости !!! Сайт переехал на новый домен Torrents-club.info. Просьба изменить ваши закладки! ***
 
[ Сегодня идет свободное скачивание без начисления Download ]


Статистика раздачи
Нет
 
   
 
 
 
Миссия невыполнима: Последствия
Mission: Impossible - Fallout
«Когда миссия не оставляет выбора»
Название: Миссия невыполнима: Последствия
Оригинальное название: Mission: Impossible - Fallout
Год выпуска: 2018
Жанр: Боевик, триллер, приключения
Выпущено: США, Китай, Франция, Норвегия, Paramount Pictures, Skydance Media
Режиссер: Кристофер МакКуорри
В ролях: Том Круз, Ребекка Фергюсон (II), Генри Кавилл, Мишель Монахэн, Ванесса Кирби, Уэс Бентли, Саймон Пегг, Анджела Бассетт, Алек Болдуин, Винг Рэймс
Продолжительность: 02:27:25
Перевод: Дублированный | Лицензия
Описание:
Действие разворачивается вокруг преобразовавшейся террористической организации, которую когда-то ликвидировал Итан Хант. Агенту предстоит вновь столкнуться со старыми врагами и остановить их. Однако порой лучшие намерения приводят к ужасному исходу и в этот раз ряд принятых главным героем решений, сложность ситуации и предательство со стороны союзников, усугубляет положение дел, последствия которых будут губительными для многих людей. Победить в гонке против времени и предотвратить возможную катастрофу Итану Ханту помогают команда и друзья.

Файл
Контейнер: MKV
Качество: Blu-Ray (2160p)
Видео: HEVC HDR, 61.5 Mбит/с, 3840x2160, 23.976 кадр/с
Аудио #1: AC-3, 48.0 kHz, 6 ch, 640 kb/s, CBR (Russian) | Дублированный | Лицензия
Аудио #2: AC-3, 48.0 kHz, 2 ch, 160 kb/s, CBR (Ukrainian) | Дублированный | iTunes
Аудио #3: TrueHD TrueHD+Atmos / TrueHD, / 48.0 kHz, Object Based / 8 ch, 5 026 kb/s, VBR (English) | Original
Аудио #4: AC-3, 48.0 kHz, 6 ch, 640 kb/s, CBR (English) | Original
Аудио #5: AC-3, 48.0 kHz, 2 ch, 224 kb/s, CBR (English) | Commentary
Аудио #6: AC-3, 48.0 kHz, 2 ch, 224 kb/s, CBR (English) | Commentary
Аудио #7: AC-3, 48.0 kHz, 2 ch, 224 kb/s, CBR (English) | Commentary
Субтитры: Русские (форсированные, полные), украинские (форсированные, полные), английские

MI

Общее
Уникальный идентификатор : 199556003099322386983428340223911224140 (0x96211693F49B6199A8BFD8B47179634C)
Полное имя : Mission.Impossible.Fallout.2018.2160p.UHD.BDRemux.HDR.HEVC.IVA(RUS.UKR.ENG).ExKinoRay.mkv
Формат : Matroska
Версия формата : Version 4
Размер файла : 71,0 Гбайт
Продолжительность : 2 ч. 27 м.
Режим общего битрейта : Переменный
Общий поток : 69,0 Мбит/сек
Название фильма : Миссия невыполнима: Последствия / Mission: Impossible - Fallout ( 2018 )
Дата кодирования : UTC 2018-12-05 12:52:06
Программа кодирования : mkvmerge v29.0.0 ('Like It Or Not') 64-bit
Библиотека кодирования : libebml v1.3.6 + libmatroska v1.4.9
Обложка : Yes
Attachments : cover
Видео
Идентификатор : 1
Формат : HEVC
Формат/Информация : High Efficiency Video Coding
Коммерческое название : HDR10
Профиль формата : Main 10@L5.1@High
Идентификатор кодека : V_MPEGH/ISO/HEVC
Продолжительность : 2 ч. 27 м.
Битрейт : 61,5 Мбит/сек
Ширина : 3840 пикселей
Высота : 2160 пикселей
Соотношение сторон : 16:9
Режим частоты кадров : Постоянный
Частота кадров : 23,976 (24000/1001) кадра/сек
Цветовое пространство : YUV
Субдискретизация насыщенности : 4:2:0 (Type 2)
Битовая глубина : 10 бит
Бит/(Пиксели*Кадры) : 0.309
Размер потока : 63,3 Гбайт (89%)
Заголовок : Mission.Impossible.Fallout.2018.2160p.UHD.BluRay.HDR.HEVC
Язык : English
Default : Да
Forced : Нет
Цветовой диапазон : Limited
Основные цвета : BT.2020
Характеристики трансфера : PQ
Коэффициенты матрицы : BT.2020 non-constant
MasteringDisplay_ColorPrimaries : Display P3
MasteringDisplay_Luminance : min: 0.0001 cd/m2, max: 1000 cd/m2
Аудио #1
Идентификатор : 2
Формат : AC-3
Формат/Информация : Audio Coding 3
Коммерческое название : Dolby Digital
Идентификатор кодека : A_AC3
Продолжительность : 2 ч. 27 м.
Вид битрейта : Постоянный
Битрейт : 640 Кбит/сек
Каналы : 6 каналов
Channel layout : L R C LFE Ls Rs
Частота : 48,0 КГц
Частота кадров : 31,250 кадров/сек (1536 SPF)
Битовая глубина : 16 бит
Метод сжатия : С потерями
Размер потока : 675 Мбайт (1%)
Заголовок : Дублированный, BD
Язык : Russian
ServiceKind/String : Complete Main
Default : Да
Forced : Нет
Аудио #2
Идентификатор : 3
Формат : AC-3
Формат/Информация : Audio Coding 3
Коммерческое название : Dolby Digital
Идентификатор кодека : A_AC3
Продолжительность : 2 ч. 27 м.
Вид битрейта : Постоянный
Битрейт : 160 Кбит/сек
Каналы : 2 канала
Channel layout : L R
Частота : 48,0 КГц
Частота кадров : 31,250 кадров/сек (1536 SPF)
Битовая глубина : 16 бит
Метод сжатия : С потерями
Размер потока : 169 Мбайт (0%)
Заголовок : Дублированный, iTunes
Язык : Ukrainian
ServiceKind/String : Complete Main
Default : Нет
Forced : Нет
Аудио #3
Идентификатор : 4
Формат : MLP FBA 16-ch
Формат/Информация : Meridian Lossless Packing FBA with 16-channel presentation
Коммерческое название : Dolby TrueHD with Dolby Atmos
Идентификатор кодека : A_TRUEHD
Продолжительность : 2 ч. 27 м.
Вид битрейта : Переменный
Битрейт : 5026 Кбит/сек
Максимальный битрейт : 8175 Кбит/сек
Каналы : 8 каналов
Channel layout : L R C LFE Ls Rs Lb Rb
Частота : 48,0 КГц
Частота кадров : 1200,000 кадров/сек (40 SPF)
Метод сжатия : Без потерь
Размер потока : 5,17 Гбайт (7%)
Заголовок : Original
Язык : English
Default : Нет
Forced : Нет
Number of dynamic objects : 11
Bed channel count : 1 канал
Bed channel configuration : LFE
Аудио #4
Идентификатор : 5
Формат : AC-3
Формат/Информация : Audio Coding 3
Коммерческое название : Dolby Digital
Идентификатор кодека : A_AC3
Продолжительность : 2 ч. 27 м.
Вид битрейта : Постоянный
Битрейт : 640 Кбит/сек
Каналы : 6 каналов
Channel layout : L R C LFE Ls Rs
Частота : 48,0 КГц
Частота кадров : 31,250 кадров/сек (1536 SPF)
Битовая глубина : 16 бит
Метод сжатия : С потерями
Размер потока : 675 Мбайт (1%)
Заголовок : Original, AC3 Core
Язык : English
ServiceKind/String : Complete Main
Default : Нет
Forced : Нет
Аудио #5
Идентификатор : 6
Формат : AC-3
Формат/Информация : Audio Coding 3
Коммерческое название : Dolby Digital
Идентификатор кодека : A_AC3
Продолжительность : 2 ч. 27 м.
Вид битрейта : Постоянный
Битрейт : 224 Кбит/сек
Каналы : 2 канала
Channel layout : L R
Частота : 48,0 КГц
Частота кадров : 31,250 кадров/сек (1536 SPF)
Битовая глубина : 16 бит
Метод сжатия : С потерями
Размер потока : 236 Мбайт (0%)
Заголовок : Commentary by director/writer/producer Christopher McQuarrie and actor/producer Tom Cruise
Язык : English
ServiceKind/String : Complete Main
Default : Нет
Forced : Нет
Аудио #6
Идентификатор : 7
Формат : AC-3
Формат/Информация : Audio Coding 3
Коммерческое название : Dolby Digital
Идентификатор кодека : A_AC3
Продолжительность : 2 ч. 27 м.
Вид битрейта : Постоянный
Битрейт : 224 Кбит/сек
Каналы : 2 канала
Channel layout : L R
Частота : 48,0 КГц
Частота кадров : 31,250 кадров/сек (1536 SPF)
Битовая глубина : 16 бит
Метод сжатия : С потерями
Размер потока : 236 Мбайт (0%)
Заголовок : Commentary by director/writer/producer Christopher McQuarrie and editor Eddie Hamilton
Язык : English
ServiceKind/String : Complete Main
Default : Нет
Forced : Нет
Аудио #7
Идентификатор : 8
Формат : AC-3
Формат/Информация : Audio Coding 3
Коммерческое название : Dolby Digital
Идентификатор кодека : A_AC3
Продолжительность : 2 ч. 27 м.
Вид битрейта : Постоянный
Битрейт : 224 Кбит/сек
Каналы : 2 канала
Channel layout : L R
Частота : 48,0 КГц
Частота кадров : 31,250 кадров/сек (1536 SPF)
Битовая глубина : 16 бит
Метод сжатия : С потерями
Размер потока : 236 Мбайт (0%)
Заголовок : Commentary by composer Lorne Balfe
Язык : English
ServiceKind/String : Complete Main
Default : Нет
Forced : Нет
Текст #1
Идентификатор : 9
Формат : UTF-8
Идентификатор кодека : S_TEXT/UTF8
Идентификатор кодека/Информация : UTF-8 Plain Text
Продолжительность : 2 ч. 25 м.
Битрейт : 1 бит/сек
ElementCount : 36
Размер потока : 1,29 Кбайт (0%)
Заголовок : Forced
Язык : Russian
Default : Нет
Forced : Да
Текст #2
Идентификатор : 10
Формат : UTF-8
Идентификатор кодека : S_TEXT/UTF8
Идентификатор кодека/Информация : UTF-8 Plain Text
Продолжительность : 2 ч. 26 м.
Битрейт : 68 бит/сек
ElementCount : 1575
Размер потока : 73,1 Кбайт (0%)
Заголовок : Full
Язык : Russian
Default : Нет
Forced : Нет
Текст #3
Идентификатор : 11
Формат : UTF-8
Идентификатор кодека : S_TEXT/UTF8
Идентификатор кодека/Информация : UTF-8 Plain Text
Продолжительность : 2 ч. 25 м.
Битрейт : 1 бит/сек
ElementCount : 37
Размер потока : 1,31 Кбайт (0%)
Заголовок : Forced
Язык : Ukrainian
Default : Нет
Forced : Да
Текст #4
Идентификатор : 12
Формат : UTF-8
Идентификатор кодека : S_TEXT/UTF8
Идентификатор кодека/Информация : UTF-8 Plain Text
Продолжительность : 2 ч. 26 м.
Битрейт : 75 бит/сек
ElementCount : 1576
Размер потока : 80,7 Кбайт (0%)
Заголовок : Full
Язык : Ukrainian
Default : Нет
Forced : Нет
Текст #5
Идентификатор : 13
Формат : UTF-8
Идентификатор кодека : S_TEXT/UTF8
Идентификатор кодека/Информация : UTF-8 Plain Text
Продолжительность : 2 ч. 19 м.
Битрейт : 53 бит/сек
ElementCount : 1854
Размер потока : 55,0 Кбайт (0%)
Заголовок : SDH
Язык : English
Default : Нет
Forced : Нет
Текст #6
Идентификатор : 14
Формат : UTF-8
Идентификатор кодека : S_TEXT/UTF8
Идентификатор кодека/Информация : UTF-8 Plain Text
Продолжительность : 2 ч. 19 м.
Битрейт : 92 бит/сек
ElementCount : 1854
Размер потока : 94,8 Кбайт (0%)
Заголовок : SDH Colored
Язык : English
Default : Нет
Forced : Нет
Текст #7
Идентификатор : 15
Формат : PGS
Идентификатор кодека : S_HDMV/PGS
Идентификатор кодека/Информация : Picture based subtitle format used on BDs/HD-DVDs
Продолжительность : 2 ч. 26 м.
Битрейт : 25,8 Кбит/сек
ElementCount : 3148
Размер потока : 27,1 Мбайт (0%)
Заголовок : Full
Язык : Russian
Default : Нет
Forced : Нет
Текст #8
Идентификатор : 16
Формат : PGS
Идентификатор кодека : S_HDMV/PGS
Идентификатор кодека/Информация : Picture based subtitle format used on BDs/HD-DVDs
Продолжительность : 2 ч. 26 м.
Битрейт : 28,0 Кбит/сек
ElementCount : 3155
Размер потока : 29,4 Мбайт (0%)
Заголовок : Full
Язык : Ukrainian
Default : Нет
Forced : Нет
Текст #9
Идентификатор : 17
Формат : PGS
Идентификатор кодека : S_HDMV/PGS
Идентификатор кодека/Информация : Picture based subtitle format used on BDs/HD-DVDs
Продолжительность : 32 м. 10 с.
Битрейт : 596 бит/сек
ElementCount : 40
Размер потока : 141 Кбайт (0%)
Заголовок : Forced
Язык : English
Default : Нет
Forced : Да
Текст #10
Идентификатор : 18
Формат : PGS
Идентификатор кодека : S_HDMV/PGS
Идентификатор кодека/Информация : Picture based subtitle format used on BDs/HD-DVDs
Продолжительность : 2 ч. 19 м.
Битрейт : 28,4 Кбит/сек
ElementCount : 3111
Размер потока : 28,3 Мбайт (0%)
Язык : English
Default : Нет
Forced : Нет
Текст #11
Идентификатор : 19
Формат : PGS
Идентификатор кодека : S_HDMV/PGS
Идентификатор кодека/Информация : Picture based subtitle format used on BDs/HD-DVDs
Продолжительность : 2 ч. 19 м.
Битрейт : 33,7 Кбит/сек
ElementCount : 3747
Размер потока : 33,5 Мбайт (0%)
Заголовок : SDH
Язык : English
Default : Нет
Forced : Нет
Текст #12
Идентификатор : 20
Формат : PGS
Идентификатор кодека : S_HDMV/PGS
Идентификатор кодека/Информация : Picture based subtitle format used on BDs/HD-DVDs
Продолжительность : 2 ч. 27 м.
Битрейт : 78,9 Кбит/сек
ElementCount : 6950
Размер потока : 83,1 Мбайт (0%)
Заголовок : Commentary by director/writer/producer Christopher McQuarrie and actor/producer Tom Cruise
Язык : English
Default : Нет
Forced : Нет
Текст #13
Идентификатор : 21
Формат : PGS
Идентификатор кодека : S_HDMV/PGS
Идентификатор кодека/Информация : Picture based subtitle format used on BDs/HD-DVDs
Продолжительность : 2 ч. 25 м.
Битрейт : 80,2 Кбит/сек
ElementCount : 6544
Размер потока : 83,6 Мбайт (0%)
Заголовок : Commentary by director/writer/producer Christopher McQuarrie and editor Eddie Hamilton
Язык : English
Default : Нет
Forced : Нет
Текст #14
Идентификатор : 22
Формат : PGS
Идентификатор кодека : S_HDMV/PGS
Идентификатор кодека/Информация : Picture based subtitle format used on BDs/HD-DVDs
Продолжительность : 2 ч. 21 м.
Битрейт : 39,9 Кбит/сек
ElementCount : 3662
Размер потока : 40,3 Мбайт (0%)
Заголовок : Commentary by composer Lorne Balfe
Язык : English
Default : Нет
Forced : Нет
Меню
00:00:00.000 : en:Chapter 1
00:10:37.011 : en:Chapter 2
00:17:11.405 : en:Chapter 3
00:26:57.241 : en:Chapter 4
00:35:56.654 : en:Chapter 5
00:49:18.414 : en:Chapter 6
01:00:00.806 : en:Chapter 7
01:10:23.719 : en:Chapter 8
01:17:07.289 : en:Chapter 9
01:28:28.470 : en:Chapter 10
01:39:09.652 : en:Chapter 11
01:46:26.547 : en:Chapter 12
01:55:45.564 : en:Chapter 13
02:03:10.592 : en:Chapter 14
02:14:00.908 : en:Chapter 15
02:19:48.088 : en:Chapter 16

[Цитировать]



Показать сообщения:    

Текущее время: 30-Ноя 19:14

Часовой пояс: UTC + 6


Вы не можете начинать темы
Вы не можете отвечать на сообщения
Вы не можете редактировать свои сообщения
Вы не можете удалять свои сообщения
Вы не можете голосовать в опросах
Вы не можете прикреплять файлы к сообщениям
Вы не можете скачивать файлы

!ВНИМАНИЕ!
Сайт не предоставляет электронные версии произведений, а занимается лишь коллекционированием и каталогизацией ссылок, присылаемых и публикуемых на форуме нашими читателями. Если вы являетесь правообладателем какого-либо представленного материала и не желаете, чтобы ссылка на него находилась в нашем каталоге, свяжитесь с нами, и мы незамедлительно удалим ее. Файлы для обмена на трекере предоставлены пользователями сайта, и администрация не несет ответственности за их содержание. Просьба не заливать файлы, защищенные авторскими правами, а также файлы нелегального содержания!