***Уважаемые пользователи и гости !!! Сайт переехал на новый домен Torrents-club.info. Просьба изменить ваши закладки! ***
 
[ Сегодня идет свободное скачивание без начисления Download ]


Статистика раздачи
Нет
 
   
 
 
 
Заза (2008) DVDRip-AVC Информация о фильме
Название: Заза
Год выхода: 2008
Жанр: мелодрама, комедия
Режиссер: Андрей Силкин
В ролях: Евгения Дмитриева, Артем Григорьев, Ксения Бородина, Анна Куликова, Андрей Щипанов, Игорь Балалаев, Алексей Колубков
О фильме: Азалия Викторовна, или просто Заза, приезжает в Москву навестить сына, семнадцатилетнего студента Никиту. Волею обстоятельств на вокзале она встречается с молодым гламурным Антоном, а несколько позже выясняется, что он живет по соседству с Никитой. Однако, добравшись наконец до его жилища, Заза попадает в разгар шумной вечеринки — Никита вовсю отмечает день рождения и совсем забыл про приезд матери. Более того — стыдится её в обществе товарищей. Заза злится на неблагодарного сына, ради которого стольким пожертвовала, однако у Антона совершенно иной взгляд на обстоятельства. Ведь любовь — еще не повод приковать мужчину на веки. И уж тем более — портить праздник. Антон учится в том ВУЗе, который так и не закончила Заза много лет назад, забеременев. А преподаватель у него — её бывший близкий друг, Сергей Юрлов. Отец Никиты. Азалия и Антон постепенно увлекаются друг другом. Оба погружаются в мир любовных увлечений и экспериментов. Но конец всему положит Никита, который сообщит другу семьи, дяде Севе, что Заза «загуляла» с молодым. Мир необычайно тесен, но дети и родители как будто живут в разных измерениях. Наши судьбы сплетаются причудливым образом — чтобы потом мы оказались вдали от тех, кто нам дорог. И только время всё расставляет на места.

Страна: Россия / Studiya Produserskogo Kino
Продолжительность: 01:31:31
Перевод: не требуется
Файл
Качество: DVDRip-AVC
Формат: MKV
Видео: MPEG-4 AVC/H.264, 2600 Кбит/сек, 720x544
Звук: AC3, 2 ch, 192 Кбит/сек
Субтитры: нет
Дополнительно: Сохранены оригинальные главы (чаптеры)

MediaInfo:

Общее
Уникальный идентификатор : 243088056521540801227210304452581573719 (0xB6E10E850E552242A1967445D31AC457)
Полное имя : F:Диск2. ФИЛЬМЫ СНГЗаза (2008)Zaza (2008) DVDRip-AVC.mkv
Формат : Matroska
Версия формата : Version 4
Размер файла : 1,76 Гбайт
Продолжительность : 1 ч. 31 м.
Общий поток : 2758 Кбит/сек
Программа кодирования : XviD4PSP 7.0.461 DAILY
Библиотека кодирования : Lavf57.71.100
Авторское право : [#ZsU®]
ErrorDetectionType : Per level 1
ENCODING_INFO : DVD > MKV Пользовательский / MPEG2 > X264 ABR 2600kbps HQ / AC3 > AC3 CBR 192kbps
Видео
Идентификатор : 1
Формат : AVC
Формат/Информация : Advanced Video Codec
Профиль формата : High@L4.1
Настройки формата : CABAC / 10 Ref Frames
Параметр CABAC формата : Да
Параметр RefFrames формата : 10 кадров
Идентификатор кодека : V_MPEG4/ISO/AVC
Продолжительность : 1 ч. 31 м.
Битрейт : 2600 Кбит/сек
Ширина : 720 пикселей
Высота : 544 пикселя
Соотношение сторон : 4:3
Режим частоты кадров : Постоянный
Частота кадров : 25,000 кадров/сек
Цветовое пространство : YUV
Субдискретизация насыщенности : 4:2:0
Битовая глубина : 8 бит
Тип развёртки : Прогрессивная
Бит/(Пиксели*Кадры) : 0.266
Размер потока : 1,61 Гбайт (91%)
Библиотека кодирования : x264 core 157 r2935M 545de2f
Настройки программы : cabac=1 / ref=11 / deblock=1:-3:-3 / analyse=0x3:0x133 / me=umh / subme=11 / psy=1 / psy_rd=1.00:0.20 / mixed_ref=1 / me_range=32 / chroma_me=1 / trellis=2 / 8x8dct=1 / cqm=0 / deadzone=21,11 / fast_pskip=1 / chroma_qp_offset=-3 / threads=12 / lookahead_threads=1 / sliced_threads=0 / nr=0 / decimate=1 / interlaced=0 / bluray_compat=0 / constrained_intra=0 / bframes=11 / b_pyramid=1 / b_adapt=1 / b_bias=11 / direct=1 / weightb=1 / open_gop=0 / weightp=1 / keyint=250 / keyint_min=25 / scenecut=40 / intra_refresh=0 / rc_lookahead=40 / rc=abr / mbtree=1 / bitrate=2600 / ratetol=1.0 / qcomp=0.60 / qpmin=0 / qpmax=69 / qpstep=4 / ip_ratio=1.40 / aq=1:1.00
Default : Да
Forced : Нет
Цветовой диапазон : Limited
Основные цвета : BT.709
Характеристики трансфера : BT.709
Коэффициенты матрицы : BT.709
Аудио
Идентификатор : 2
Формат : AC-3
Формат/Информация : Audio Coding 3
Коммерческое название : Dolby Digital
Идентификатор кодека : A_AC3
Продолжительность : 1 ч. 31 м.
Вид битрейта : Постоянный
Битрейт : 192 Кбит/сек
Каналы : 2 канала
Channel layout : L R
Частота : 48,0 КГц
Частота кадров : 31,250 кадров/сек (1536 SPF)
Битовая глубина : 16 бит
Метод сжатия : С потерями
Размер потока : 126 Мбайт (7%)
Язык : Russian
Default : Да
Forced : Нет
Меню
00:00:00.000 : :Глава 1
00:10:00.000 : :Глава 2
00:20:34.800 : :Глава 3
00:31:04.800 : :Глава 4
00:39:30.160 : :Глава 5
00:50:15.279 : :Глава 6
01:00:37.959 : :Глава 7
01:11:44.639 : :Глава 8
01:18:59.679 : :Глава 9
01:31:30.360 : :Глава 10

Скриншоты

[Цитировать]



Показать сообщения:    

Текущее время: 28-Ноя 01:35

Часовой пояс: UTC + 6


Вы не можете начинать темы
Вы не можете отвечать на сообщения
Вы не можете редактировать свои сообщения
Вы не можете удалять свои сообщения
Вы не можете голосовать в опросах
Вы не можете прикреплять файлы к сообщениям
Вы не можете скачивать файлы

!ВНИМАНИЕ!
Сайт не предоставляет электронные версии произведений, а занимается лишь коллекционированием и каталогизацией ссылок, присылаемых и публикуемых на форуме нашими читателями. Если вы являетесь правообладателем какого-либо представленного материала и не желаете, чтобы ссылка на него находилась в нашем каталоге, свяжитесь с нами, и мы незамедлительно удалим ее. Файлы для обмена на трекере предоставлены пользователями сайта, и администрация не несет ответственности за их содержание. Просьба не заливать файлы, защищенные авторскими правами, а также файлы нелегального содержания!