***Уважаемые пользователи и гости !!! Сайт переехал на новый домен Torrents-club.info. Просьба изменить ваши закладки! ***
 
[ Сегодня идет свободное скачивание без начисления Download ]


Статистика раздачи
Нет
 
   
 
 
 
Хищник / The Predator / 2018 [4K, HEVC, HDR / 4K, HEVC, HDR / Blu-Ray Remux](2160p) Год выпуска: 2018
Жанр: Ужасы, фантастика, боевик, триллер, приключения
Выпущено: США, Канада, Twentieth Century Fox, Davis Entertainment, TSG Entertainment
Режиссер: Шейн Блэк
Продолжительность: 01:47:28
Перевод: Дублированный, профессиональный многоголосый
Субтитры: Русские, английские
возраст 18+
В ролях: Бойд Холбрук, Треванте Роудс, Джейкоб Трамбле, Кигэн-Майкл Ки, Оливия Манн, Стерлинг К. Браун, Томас Джейн, Элфи Оуэн-Аллен, Августо Агилера, Джейк Бьюзи
О фильме: Главный герой, бывший морпех, обнаруживает злобную инопланетную расу на Земле, но никто не верит ему, что эти твари существуют. Его сын-аутист, которого все обижают в школе, становится ключевой фигурой в схватке с Хищниками, поскольку мальчик умеет невероятно быстро учить языки и, судя по всему, сможет понять пришельцев.
Техданные
Качество: Blu-Ray Remux (2160p)
Видео: HEVC, 57,7 Мбит/с, 3840x2160
Аудио: Русский (AC3, 6 ch, 384 Кбит/с), (AC3, 2 ch, 160 Кбит/с), (DTS-HD MA, 8 ch, 5261 Кбит/с), английский (TrueHD, 8 ch, 5087 Кбит/с), (AC3, 6 ch, 640 Кбит/с)

Релиз

Имя файла: The.Predator.2018.UHD.BDRemux.2160p.HEVC.HDR.IVA(3хRUS.ENG).ExKinoRay.mkv
Размер файла: 51.8 GB
Длительность: 01:46:57
Общий битрейт: 69.3 Mb/s
Видео: HEVC, 3840x2160 (16:9), 23.976 fps, 57.7 Mb/s (0.290 bit/pixel)
Аудио #1: AC-3, 48.0 kHz, 6 ch, 384 kb/s, CBR (Russian) | Дублированный | [iTunes]
Аудио #2: AC-3, 48.0 kHz, 2 ch, 192 kb/s, CBR (Russian) | Профессиональный многоголосый | [HDRezka Studio]
Аудио #3: DTS MA, 48.0 kHz, 8 ch, 5 261 kb/s (Russian) | AVO - М. Яроцкий
Аудио #4: TrueHD TrueHD+Atmos / TrueHD, / 48.0 kHz, Object Based / 8 ch, 5 087 kb/s, VBR (English)
Аудио #5: AC-3, 48.0 kHz, 6 ch, 640 kb/s, CBR (English)
Субтитры: Русские (форсированные, полные), английские (полные)

MediaInfo:

Общее
Уникальный идентификатор : 282210137303064416766130196241460323837 (0xD44FB20601CEDEAACFE3D7926C8D65FD)
Полное имя : The.Predator.2018.UHD.BDRemux.2160p.HEVC.HDR.IVA(3хRUS.ENG).ExKinoRay.mkv
Формат : Matroska
Версия формата : Version 4
Размер файла : 51,8 Гбайт
Продолжительность : 1 ч. 46 м.
Режим общего битрейта : Переменный
Общий поток : 69,3 Мбит/сек
Название фильма : Хищник / The Predator ( 2018 ) UHD BDRemux | HDR, 4K | IVA(RUS.ENG) | ExKinoRay
Дата кодирования : UTC 2018-12-17 04:50:39
Программа кодирования : mkvmerge v29.0.0 ('Like It Or Not') 64-bit
Библиотека кодирования : libebml v1.3.6 + libmatroska v1.4.9
Обложка : Yes
Attachments : cover
Видео
Идентификатор : 1
Формат : HEVC
Формат/Информация : High Efficiency Video Coding
Коммерческое название : HDR10
Профиль формата : Main 10@L5.1@High
Идентификатор кодека : V_MPEGH/ISO/HEVC
Продолжительность : 1 ч. 46 м.
Битрейт : 57,7 Мбит/сек
Ширина : 3840 пикселей
Высота : 2160 пикселей
Соотношение сторон : 16:9
Режим частоты кадров : Постоянный
Частота кадров : 23,976 (24000/1001) кадра/сек
Цветовое пространство : YUV
Субдискретизация насыщенности : 4:2:0 (Type 2)
Битовая глубина : 10 бит
Бит/(Пиксели*Кадры) : 0.290
Размер потока : 43,1 Гбайт (83%)
Язык : English
Default : Да
Forced : Нет
Цветовой диапазон : Limited
Основные цвета : BT.2020
Характеристики трансфера : PQ
Коэффициенты матрицы : BT.2020 non-constant
MasteringDisplay_ColorPrimaries : Display P3
MasteringDisplay_Luminance : min: 0.0050 cd/m2, max: 1000 cd/m2
Аудио #1
Идентификатор : 2
Формат : AC-3
Формат/Информация : Audio Coding 3
Коммерческое название : Dolby Digital
Идентификатор кодека : A_AC3
Продолжительность : 1 ч. 46 м.
Вид битрейта : Постоянный
Битрейт : 384 Кбит/сек
Каналы : 6 каналов
Channel layout : L R C LFE Ls Rs
Частота : 48,0 КГц
Частота кадров : 31,250 кадров/сек (1536 SPF)
Битовая глубина : 16 бит
Метод сжатия : С потерями
Размер потока : 294 Мбайт (1%)
Заголовок : DUB [iTunes]
Язык : Russian
ServiceKind/String : Complete Main
Default : Да
Forced : Нет
Аудио #2
Идентификатор : 3
Формат : AC-3
Формат/Информация : Audio Coding 3
Коммерческое название : Dolby Digital
Идентификатор кодека : A_AC3
Продолжительность : 1 ч. 46 м.
Вид битрейта : Постоянный
Битрейт : 192 Кбит/сек
Каналы : 2 канала
Channel layout : L R
Частота : 48,0 КГц
Частота кадров : 31,250 кадров/сек (1536 SPF)
Битовая глубина : 16 бит
Метод сжатия : С потерями
Размер потока : 147 Мбайт (0%)
Заголовок : MVO [HDRezka Studio]
Язык : Russian
ServiceKind/String : Complete Main
Default : Нет
Forced : Нет
Аудио #3
Идентификатор : 4
Формат : DTS ES XLL
Формат/Информация : Digital Theater Systems
Коммерческое название : DTS-HD Master Audio
Идентификатор кодека : A_DTS
Продолжительность : 1 ч. 46 м.
Вид битрейта : Переменный
Битрейт : 5261 Кбит/сек
Каналы : 8 каналов
Channel layout : C L R Ls Rs LFE Lb Rb
Частота : 48,0 КГц
Частота кадров : 93,750 кадра/сек (512 SPF)
Битовая глубина : 24 бит
Метод сжатия : Без потерь
Размер потока : 3,93 Гбайт (8%)
Заголовок : AVO [М. Яроцкий]
Язык : Russian
Default : Нет
Forced : Нет
Аудио #4
Идентификатор : 5
Формат : MLP FBA 16-ch
Формат/Информация : Meridian Lossless Packing FBA with 16-channel presentation
Коммерческое название : Dolby TrueHD with Dolby Atmos
Идентификатор кодека : A_TRUEHD
Продолжительность : 1 ч. 46 м.
Вид битрейта : Переменный
Битрейт : 5087 Кбит/сек
Максимальный битрейт : 8853 Кбит/сек
Каналы : 8 каналов
Channel layout : L R C LFE Ls Rs Lb Rb
Частота : 48,0 КГц
Частота кадров : 1200,000 кадров/сек (40 SPF)
Метод сжатия : Без потерь
Задержка видео : 4 мс.
Размер потока : 3,80 Гбайт (7%)
Заголовок : Original
Язык : English
Default : Нет
Forced : Нет
Number of dynamic objects : 13
Bed channel count : 1 канал
Bed channel configuration : LFE
Аудио #5
Идентификатор : 6
Формат : AC-3
Формат/Информация : Audio Coding 3
Коммерческое название : Dolby Digital
Идентификатор кодека : A_AC3
Продолжительность : 1 ч. 46 м.
Вид битрейта : Постоянный
Битрейт : 640 Кбит/сек
Каналы : 6 каналов
Channel layout : L R C LFE Ls Rs
Частота : 48,0 КГц
Частота кадров : 31,250 кадров/сек (1536 SPF)
Битовая глубина : 16 бит
Метод сжатия : С потерями
Задержка видео : 4 мс.
Размер потока : 490 Мбайт (1%)
Заголовок : Original, AC3 Core
Язык : English
ServiceKind/String : Complete Main
Default : Нет
Forced : Нет
Текст #1
Идентификатор : 7
Формат : UTF-8
Идентификатор кодека : S_TEXT/UTF8
Идентификатор кодека/Информация : UTF-8 Plain Text
Продолжительность : 1 ч. 45 м.
Битрейт : 1 бит/сек
ElementCount : 22
Размер потока : 1,02 Кбайт (0%)
Заголовок : Forced
Язык : Russian
Default : Да
Forced : Да
Текст #2
Идентификатор : 8
Формат : UTF-8
Идентификатор кодека : S_TEXT/UTF8
Идентификатор кодека/Информация : UTF-8 Plain Text
Продолжительность : 1 ч. 45 м.
Битрейт : 70 бит/сек
ElementCount : 1270
Размер потока : 54,4 Кбайт (0%)
Заголовок : Full
Язык : Russian
Default : Нет
Forced : Нет
Текст #3
Идентификатор : 9
Формат : UTF-8
Идентификатор кодека : S_TEXT/UTF8
Идентификатор кодека/Информация : UTF-8 Plain Text
Продолжительность : 1 ч. 38 м.
Битрейт : 49 бит/сек
ElementCount : 1366
Размер потока : 35,6 Кбайт (0%)
Заголовок : Full
Язык : English
Default : Нет
Forced : Нет
Текст #4
Идентификатор : 10
Формат : UTF-8
Идентификатор кодека : S_TEXT/UTF8
Идентификатор кодека/Информация : UTF-8 Plain Text
Продолжительность : 1 ч. 38 м.
Битрейт : 59 бит/сек
ElementCount : 1707
Размер потока : 43,1 Кбайт (0%)
Заголовок : SDH
Язык : English
Default : Нет
Forced : Нет
Меню
00:00:00.000 : :Глава 01
00:02:00.703 : :Глава 02
00:08:32.929 : :Глава 03
00:09:45.334 : :Глава 04
00:13:47.660 : :Глава 05
00:16:09.176 : :Глава 06
00:17:36.430 : :Глава 07
00:20:21.470 : :Глава 08
00:25:01.958 : :Глава 09
00:27:36.279 : :Глава 10
00:31:10.076 : :Глава 11
00:36:23.347 : :Глава 12
00:38:00.653 : :Глава 13
00:39:42.546 : :Глава 14
00:44:34.713 : :Глава 15
00:49:15.911 : :Глава 16
00:53:18.612 : :Глава 17
00:58:34.510 : :Глава 18
00:59:58.511 : :Глава 19
01:03:16.292 : :Глава 20
01:06:36.826 : :Глава 21
01:09:51.020 : :Глава 22
01:12:26.633 : :Глава 23
01:15:55.634 : :Глава 24
01:18:52.686 : :Глава 25
01:21:24.629 : :Глава 26
01:23:08.942 : :Глава 27
01:27:08.806 : :Глава 28
01:30:55.241 : :Глава 29
01:32:14.820 : :Глава 30
01:35:08.411 : :Глава 31
01:40:00.202 : :Глава 32

Скринлист

[Цитировать]



Показать сообщения:    

Текущее время: 28-Ноя 01:33

Часовой пояс: UTC + 6


Вы не можете начинать темы
Вы не можете отвечать на сообщения
Вы не можете редактировать свои сообщения
Вы не можете удалять свои сообщения
Вы не можете голосовать в опросах
Вы не можете прикреплять файлы к сообщениям
Вы не можете скачивать файлы

!ВНИМАНИЕ!
Сайт не предоставляет электронные версии произведений, а занимается лишь коллекционированием и каталогизацией ссылок, присылаемых и публикуемых на форуме нашими читателями. Если вы являетесь правообладателем какого-либо представленного материала и не желаете, чтобы ссылка на него находилась в нашем каталоге, свяжитесь с нами, и мы незамедлительно удалим ее. Файлы для обмена на трекере предоставлены пользователями сайта, и администрация не несет ответственности за их содержание. Просьба не заливать файлы, защищенные авторскими правами, а также файлы нелегального содержания!