***Уважаемые пользователи и гости !!! Сайт переехал на новый домен Torrents-club.info. Просьба изменить ваши закладки! ***
 
[ Сегодня идет свободное скачивание без начисления Download ]


Статистика раздачи
Нет
 
   
 
 
 
Добрый вечер - Информация
Производство: Россия, Life Is Short, Pin-Up Production
Жанр: Комедия, Криминал
Режиссер: Фёдор Константинович
Актеры: Вильма Кутавичюте, Артём Цуканов, Кристина Казинская, Филипп Савинков
Описание:
В придорожном отеле сталкиваются бандит и писатель, монахиня и проститутка. У каждого есть план на этот вечер. Спор. Ссора. Секс. Убийство. Кто кого?


Дата российской премьеры: 20 декабря 2018
Продолжительность: 01:19:57
Перевод: Не требуется (Русский) - iTunes
Файл
Качество видео: WEB-DL Сэмпл
Видео: AVC/H.264, 1920x800, ~4587 Kbps
Аудио: AC3, 6 ch, 384 Kbps
Субтитры: Отсутствуют

Mediainfo:

Общее
Уникальный идентификатор : 154578780753579631227340077194783149960 (0x744ACA4E9C962A0C8C6A58F5DC4ECF88)
Полное имя : C:\Добрый.вечер.2018.WEB-DL.1080p.mkv
Формат : Matroska
Версия формата : Version 4
Размер файла : 2,78 Гбайт
Продолжительность : 1 ч. 19 м.
Общий поток : 4973 Кбит/сек
Название фильма : Добрый.вечер.2018.WEBDL.1080p.iTunes.RUS-ylnian
Дата кодирования : UTC 2018-12-20 12:58:57
Программа кодирования : mkvmerge v28.2.0 ('The Awakening') 64-bit
Библиотека кодирования : libebml v1.3.6 + libmatroska v1.4.9
Видео
Идентификатор : 1
Формат : AVC
Формат/Информация : Advanced Video Codec
Профиль формата : High@L4
Настройки формата : CABAC / 5 Ref Frames
Параметр CABAC формата : Да
Параметр RefFrames формата : 5 кадров
Идентификатор кодека : V_MPEG4/ISO/AVC
Продолжительность : 1 ч. 19 м.
Битрейт : 4587 Кбит/сек
Ширина : 1920 пикселей
Высота : 800 пикселей
Соотношение сторон : 2,40:1
Режим частоты кадров : Постоянный
Частота кадров : 24,000 кадра/сек
Цветовое пространство : YUV
Субдискретизация насыщенности : 4:2:0
Битовая глубина : 8 бит
Тип развёртки : Прогрессивная
Бит/(Пиксели*Кадры) : 0.124
Размер потока : 2,56 Гбайт (92%)
Заголовок : Добрый.вечер.2018.WEBDL.1080p.iTunes.RUS-ylnian
Язык : Russian
Default : Да
Forced : Да
Цветовой диапазон : Limited
Основные цвета : BT.709
Характеристики трансфера : BT.709
Коэффициенты матрицы : BT.709
Аудио
Идентификатор : 2
Формат : AC-3
Формат/Информация : Audio Coding 3
Коммерческое название : Dolby Digital
Идентификатор кодека : A_AC3
Продолжительность : 1 ч. 19 м.
Вид битрейта : Постоянный
Битрейт : 384 Кбит/сек
Каналы : 6 каналов
Channel layout : L R C LFE Ls Rs
Частота : 48,0 КГц
Частота кадров : 31,250 кадров/сек (1536 SPF)
Битовая глубина : 16 бит
Метод сжатия : С потерями
Размер потока : 220 Мбайт (8%)
Язык : Russian
ServiceKind/String : Complete Main
Default : Да
Forced : Да
Меню
00:00:00.000 : ru:1
00:02:40.791 : ru:2
00:08:16.957 : ru:3
00:15:33.165 : ru:4
00:28:02.665 : ru:5
00:31:59.373 : ru:6
00:39:04.123 : ru:7
00:50:41.123 : ru:8
00:59:28.164 : ru:9
01:11:32.247 : ru:10

Скриншоты

Скриншоты:

[Цитировать]

thank you

[Цитировать]



Показать сообщения:    

Текущее время: 27-Ноя 23:54

Часовой пояс: UTC + 6


Вы не можете начинать темы
Вы не можете отвечать на сообщения
Вы не можете редактировать свои сообщения
Вы не можете удалять свои сообщения
Вы не можете голосовать в опросах
Вы не можете прикреплять файлы к сообщениям
Вы не можете скачивать файлы

!ВНИМАНИЕ!
Сайт не предоставляет электронные версии произведений, а занимается лишь коллекционированием и каталогизацией ссылок, присылаемых и публикуемых на форуме нашими читателями. Если вы являетесь правообладателем какого-либо представленного материала и не желаете, чтобы ссылка на него находилась в нашем каталоге, свяжитесь с нами, и мы незамедлительно удалим ее. Файлы для обмена на трекере предоставлены пользователями сайта, и администрация не несет ответственности за их содержание. Просьба не заливать файлы, защищенные авторскими правами, а также файлы нелегального содержания!