***Уважаемые пользователи и гости !!! Сайт переехал на новый домен Torrents-club.info. Просьба изменить ваши закладки! ***
 
[ Сегодня идет свободное скачивание без начисления Download ]


Статистика раздачи
Нет
 
   
 
 
 
Рэмбо 3 / Rambo III (1988) Информация о фильме
Название: Рэмбо 3
Оригинальное название: Rambo III
Год выхода: 1988
Жанр: боевик, триллер, приключения, военный
Режиссер: Питер МакДональд
В ролях: Сильвестр Сталлоне, Ричард Кренна, Марк Де Йонге, Кертвуд Смит, Спирос Фокас, Сэссон Габаи, Дуди Шоуа, Рэнди Рэни, Маркус Гилберт, Алон Абутбул
О фильме:
Ветеран вьетнамской войны Джон Рэмбо, уставший от своих военных и гражданских подвигов, поселяется в буддистском монастыре. Однако долго пребывать в мире ему не приходится. Захвачен в плен его бывший командир, и Рэмбо отправляется его спасать, вступая в отчаянную и неравную схватку с противником.

Страна: США
Продолжительность: 01:41:26
Перевод: Профессиональный многоголосый, авторский
Файл
Кодек: x264
Качество: BDRip 1080p (источник: UHD BDRemux 2160p)
Видео: 1920х816 (2.35:1), 13 Mbps, 24.000 fps, 0.346 bit/pixel
Аудио #1: AC3, 6 ch, 640 kbps | Russian | MVO Киномания
Аудио #2: AC3, 6 ch, 448 kbps | Russian | MVO CP Digital
Аудио #3: AC3, 6 ch, 640 kbps | Russian | AVO А.Гаврилов
Аудио #4: AC3, 6 ch, 640 kbps | Russian | AVO Ю.Живов
Аудио #5: AC3, 6 ch, 640 kbps | English | Оригинал
Субтитры: Русские полные, английские полные
Семпл

Скриншоты

MediaInfo, x264 log

General
Unique ID : 222435424879556995230635058587249299568 (0xA7578129FAB4ED6C4F6BCEF690465070)
Complete name : Rambo III (1988) UHD BDRip 1080p.mkv
Format : Matroska
Format version : Version 4
File size : 11.3 GiB
Duration : 1 h 41 min
Overall bit rate : 16.0 Mb/s
Movie name : Rambo III (1988)
Encoded date : UTC 2018-12-21 21:41:54
Writing application : mkvmerge v29.0.0 ('Like It Or Not') 64-bit
Writing library : libebml v1.3.6 + libmatroska v1.4.9
Cover : Yes
Attachments : cover.jpg / x264.log
Video
ID : 1
Format : AVC
Format/Info : Advanced Video Codec
Format profile : High@L4.1
Format settings : CABAC / 5 Ref Frames
Format settings, CABAC : Yes
Format settings, ReFrames : 5 frames
Codec ID : V_MPEG4/ISO/AVC
Duration : 1 h 41 min
Bit rate : 13.0 Mb/s
Width : 1 920 pixels
Height : 816 pixels
Display aspect ratio : 2.35:1
Frame rate mode : Constant
Frame rate : 24.000 FPS
Color space : YUV
Chroma subsampling : 4:2:0
Bit depth : 8 bits
Scan type : Progressive
Bits/(Pixel*Frame) : 0.346
Stream size : 9.21 GiB (81%)
Writing library : x264 core 157 r2935+3 b68b5bf
Encoding settings : cabac=1 / ref=5 / deblock=1:-3:-3 / analyse=0x3:0x133 / me=umh / subme=11 / psy=1 / psy_rd=1.00:0.00 / mixed_ref=1 / me_range=32 / chroma_me=1 / trellis=2 / 8x8dct=1 / cqm=0 / deadzone=21,11 / fast_pskip=0 / chroma_qp_offset=-2 / threads=12 / lookahead_threads=3 / sliced_threads=0 / nr=0 / decimate=1 / interlaced=0 / bluray_compat=0 / constrained_intra=0 / bframes=12 / b_pyramid=2 / b_adapt=2 / b_bias=0 / direct=3 / weightb=1 / open_gop=0 / weightp=2 / keyint=240 / keyint_min=24 / scenecut=40 / intra_refresh=0 / rc=2pass / mbtree=0 / bitrate=13000 / ratetol=1.0 / qcomp=0.60 / qpmin=0 / qpmax=69 / qpstep=4 / cplxblur=20.0 / qblur=0.5 / ip_ratio=1.40 / pb_ratio=1.30 / aq=3:0.80
Language : English
Default : Yes
Forced : No
Color range : Limited
Color primaries : BT.709
Transfer characteristics : BT.709
Matrix coefficients : BT.709
Audio #1
ID : 2
Format : AC-3
Format/Info : Audio Coding 3
Commercial name : Dolby Digital
Codec ID : A_AC3
Duration : 1 h 41 min
Bit rate mode : Constant
Bit rate : 640 kb/s
Channel(s) : 6 channels
Channel layout : L R C LFE Ls Rs
Sampling rate : 48.0 kHz
Frame rate : 31.250 FPS (1536 SPF)
Bit depth : 16 bits
Compression mode : Lossy
Stream size : 464 MiB (4%)
Title : MVO, Киномания
Language : Russian
Service kind : Complete Main
Default : Yes
Forced : No
Audio #2
ID : 3
Format : AC-3
Format/Info : Audio Coding 3
Commercial name : Dolby Digital
Codec ID : A_AC3
Duration : 1 h 41 min
Bit rate mode : Constant
Bit rate : 448 kb/s
Channel(s) : 6 channels
Channel layout : L R C LFE Ls Rs
Sampling rate : 48.0 kHz
Frame rate : 31.250 FPS (1536 SPF)
Bit depth : 16 bits
Compression mode : Lossy
Stream size : 325 MiB (3%)
Title : MVO, CP Digital
Language : Russian
Service kind : Complete Main
Default : No
Forced : No
Audio #3
ID : 4
Format : AC-3
Format/Info : Audio Coding 3
Commercial name : Dolby Digital
Codec ID : A_AC3
Duration : 1 h 41 min
Bit rate mode : Constant
Bit rate : 640 kb/s
Channel(s) : 6 channels
Channel layout : L R C LFE Ls Rs
Sampling rate : 48.0 kHz
Frame rate : 31.250 FPS (1536 SPF)
Bit depth : 16 bits
Compression mode : Lossy
Stream size : 464 MiB (4%)
Title : AVO, Гаврилов
Language : Russian
Service kind : Complete Main
Default : No
Forced : No
Audio #4
ID : 5
Format : AC-3
Format/Info : Audio Coding 3
Commercial name : Dolby Digital
Codec ID : A_AC3
Duration : 1 h 41 min
Bit rate mode : Constant
Bit rate : 640 kb/s
Channel(s) : 6 channels
Channel layout : L R C LFE Ls Rs
Sampling rate : 48.0 kHz
Frame rate : 31.250 FPS (1536 SPF)
Bit depth : 16 bits
Compression mode : Lossy
Stream size : 464 MiB (4%)
Title : AVO, Живов
Language : Russian
Service kind : Complete Main
Default : No
Forced : No
Audio #5
ID : 6
Format : AC-3
Format/Info : Audio Coding 3
Commercial name : Dolby Digital
Codec ID : A_AC3
Duration : 1 h 41 min
Bit rate mode : Constant
Bit rate : 640 kb/s
Channel(s) : 6 channels
Channel layout : L R C LFE Ls Rs
Sampling rate : 48.0 kHz
Frame rate : 31.250 FPS (1536 SPF)
Bit depth : 16 bits
Compression mode : Lossy
Stream size : 464 MiB (4%)
Title : Original
Language : English
Service kind : Complete Main
Default : No
Forced : No
Text #1
ID : 7
Format : UTF-8
Codec ID : S_TEXT/UTF8
Codec ID/Info : UTF-8 Plain Text
Duration : 1 h 29 min
Bit rate : 41 b/s
Count of elements : 521
Stream size : 27.0 KiB (0%)
Title : Rus full
Language : Russian
Default : No
Forced : No
Text #2
ID : 8
Format : UTF-8
Codec ID : S_TEXT/UTF8
Codec ID/Info : UTF-8 Plain Text
Duration : 1 h 30 min
Bit rate : 22 b/s
Count of elements : 481
Stream size : 14.8 KiB (0%)
Title : Eng full
Language : English
Default : No
Forced : No
Menu
00:00:00.000 : en:Stick Fighting
00:07:19.458 : en:My War is Over
00:14:30.375 : en:No Chance of Escape
00:22:06.958 : en:I'm No Tourist
00:27:54.875 : en:Holy Warriors
00:36:18.667 : en:Friendly Game
00:41:57.875 : en:This is Not Your War
00:48:47.167 : en:Minefield
00:55:49.750 : en:Inside the Fortress
01:02:06.792 : en:No Mercy
01:09:51.458 : en:Heal the Wounds
01:14:40.167 : en:Saving Trautman
01:19:44.250 : en:Your Worst Nightmare
01:26:22.625 : en:Surrender Now!
01:33:47.500 : en:Final Confrontation
01:36:16.500 : en:Credits-x264 [info]: frame I:916 Avg QP:17.43 size:226615
x264 [info]: frame P:35770 Avg QP:20.10 size:108694
x264 [info]: frame B:109377 Avg QP:22.24 size: 52973
x264 [info]: consecutive B-frames: 4.3% 6.0% 10.1% 20.0% 13.6% 26.8% 6.4% 3.1% 3.6% 3.1% 1.4% 1.0% 0.7%
x264 [info]: mb I I16..4: 5.3% 81.4% 13.3%
x264 [info]: mb P I16..4: 1.0% 25.0% 1.0% P16..4: 24.9% 33.0% 11.2% 1.5% 0.1% skip: 2.4%
x264 [info]: mb B I16..4: 0.0% 2.9% 0.1% B16..8: 46.1% 20.1% 4.3% direct: 8.4% skip:18.0% L0:47.0% L1:45.9% BI: 7.1%
x264 [info]: 8x8 transform intra:92.7% inter:62.4%
x264 [info]: direct mvs spatial:98.4% temporal:1.6%
x264 [info]: coded y,uvDC,uvAC intra: 97.0% 73.5% 29.2% inter: 48.6% 28.5% 0.8%
x264 [info]: i16 v,h,dc,p: 12% 13% 11% 64%
x264 [info]: i8 v,h,dc,ddl,ddr,vr,hd,vl,hu: 5% 6% 8% 11% 15% 14% 15% 11% 13%
x264 [info]: i4 v,h,dc,ddl,ddr,vr,hd,vl,hu: 5% 5% 4% 11% 17% 15% 17% 11% 15%
x264 [info]: i8c dc,h,v,p: 29% 30% 21% 20%
x264 [info]: Weighted P-Frames: Y:20.9% UV:14.5%
x264 [info]: ref P L0: 47.2% 9.7% 22.3% 10.6% 8.3% 1.7% 0.2%
x264 [info]: ref B L0: 71.6% 19.7% 7.3% 1.4%
x264 [info]: ref B L1: 92.1% 7.9%
x264 [info]: kb/s:12999.81

[Цитировать]



Показать сообщения:    

Текущее время: 01-Дек 19:07

Часовой пояс: UTC + 6


Вы не можете начинать темы
Вы не можете отвечать на сообщения
Вы не можете редактировать свои сообщения
Вы не можете удалять свои сообщения
Вы не можете голосовать в опросах
Вы не можете прикреплять файлы к сообщениям
Вы не можете скачивать файлы

!ВНИМАНИЕ!
Сайт не предоставляет электронные версии произведений, а занимается лишь коллекционированием и каталогизацией ссылок, присылаемых и публикуемых на форуме нашими читателями. Если вы являетесь правообладателем какого-либо представленного материала и не желаете, чтобы ссылка на него находилась в нашем каталоге, свяжитесь с нами, и мы незамедлительно удалим ее. Файлы для обмена на трекере предоставлены пользователями сайта, и администрация не несет ответственности за их содержание. Просьба не заливать файлы, защищенные авторскими правами, а также файлы нелегального содержания!