***Уважаемые пользователи и гости !!! Сайт переехал на новый домен Torrents-club.info. Просьба изменить ваши закладки! ***
 
[ Сегодня идет свободное скачивание без начисления Download ]


Статистика раздачи
Нет
 
   
 
 
 
Миссия невыполнима
Последствия
Mission: Impossible - Fallout
- Информация
Производство: США, Bad Robot, Paramount Pictures, Skydance Productions, TC Productions
Жанр: Боевик, Триллер, Приключения
Режиссер: Кристофер МакКуорри
Продюсер: Джей Джей Абрамс, Том Круз, Дэвид Эллисон
Актеры: Том Круз, Ребекка Фергюсон, Генри Кавилл, Мишель Монахэн, Ванесса Кирби, Уэс Бентли, Саймон Пегг, Анджела Бассетт, Алек Болдуин, Винг Реймз
Описание:
Итан Хант и его команда, а также недавно примкнувшие к ним союзники, вынуждены действовать наперегонки со временем, когда новая миссия идет не по плану.


Возраст: 16+ (зрителям, достигшим 16 лет)
Рейтинг MPAA: PG-13 (детям до 13 лет просмотр нежелателен)
Дата мировой премьеры: 12 июля 2018
Дата российской премьеры: 26 июля 2018, «Централ Партнершип»
Продолжительность: 02:27:25
Перевод: Дублированный (Blu-ray EUR)
Файл
Качество видео: BDRip (IMAX)
Видео: AVC/H.264, 1920x1012, ~ 6899 Kbps, 23.976 fps
Аудио 1: АС3, 6 ch, 48 kHz, 640 Kbps | Русский (DUB)
Аудио 2: АС3, 2 ch, 48 kHz, 192 Kbps | Украинский (DUB)
Аудио 3: АС3, 6 ch, 48 kHz, 384 Kbps | Английский
Субтитры: Русский (форс., полные), Украинский (форс., полные), Английский

h.264 log:

--[Information] [Чт 15.11.18 5:49:39] Standard error stream
---[Information] [Чт 15.11.18 5:49:53] y4m [info]: 1920x1012p 1:1 @ 24000/1001 fps (cfr)
---[Information] [Чт 15.11.18 5:49:53] x264 [info]: using SAR=1/1
---[Information] [Чт 15.11.18 5:49:53] x264 [info]: using cpu capabilities: MMX2 SSE2Fast SSSE3 SSE4.2 AVX
---[Information] [Чт 15.11.18 5:49:53] x264 [info]: profile High, level 4.1, 4:2:0, 8-bit
---[Information] [Чт 15.11.18 17:28:13] x264 [info]: frame I:1656 Avg QP:18.05 size:179870
---[Information] [Чт 15.11.18 17:28:13] x264 [info]: frame P:51104 Avg QP:21.12 size: 57927
---[Information] [Чт 15.11.18 17:28:13] x264 [info]: frame B:159306 Avg QP:22.41 size: 27165
---[Information] [Чт 15.11.18 17:28:13] x264 [info]: consecutive B-frames: 4.2% 4.8% 11.0% 13.5% 13.2% 46.0% 4.6% 0.9% 1.1% 0.7%

Mediainfo:

General
Complete name : \Mission.Impossible.Fallout.2018.BDRip.H.264.1080p.LQ.NNMClub.mkv
Format : Matroska
Format version : Version 2
File size : 8.29 GiB
Duration : 2 h 27 min
Overall bit rate : 8 048 kb/s
Movie name : Mission.Impossible.Fallout.2018.BDRip.H.264.10880p.LQ.NNMClub
Encoded date : UTC 2018-12-27 08:17:51
Writing application : mkvmerge v7.7.0 ('Six Voices') 64bit built on Feb 28 2015 23:39:33
Writing library : libebml v1.3.1 + libmatroska v1.4.2
Video
ID : 1
Format : AVC
Format/Info : Advanced Video Codec
Format profile : High@L4.1
Format settings : CABAC / 4 Ref Frames
Format settings, CABAC : Yes
Format settings, ReFrames : 4 frames
Codec ID : V_MPEG4/ISO/AVC
Duration : 2 h 27 min
Bit rate : 6 899 kb/s
Width : 1 920 pixels
Height : 1 012 pixels
Display aspect ratio : 1.897
Frame rate mode : Constant
Frame rate : 23.976 (24000/1001) FPS
Color space : YUV
Chroma subsampling : 4:2:0
Bit depth : 8 bits
Scan type : Progressive
Bits/(Pixel*Frame) : 0.148
Stream size : 6.90 GiB (83%)
Title : Mission.Impossible.Fallout.2018.BDRip.H.264.1080p.LQ.NNMClub
Writing library : x264 core 157 r2935 545de2f
Encoding settings : cabac=1 / ref=4 / deblock=1:-3:-3 / analyse=0x3:0x133 / me=umh / subme=11 / psy=1 / psy_rd=1.00:0.25 / mixed_ref=1 / me_range=32 / chroma_me=1 / trellis=2 / 8x8dct=1 / cqm=0 / deadzone=6,6 / fast_pskip=0 / chroma_qp_offset=-4 / threads=12 / lookahead_threads=2 / sliced_threads=0 / nr=0 / decimate=0 / interlaced=0 / bluray_compat=0 / constrained_intra=0 / bframes=9 / b_pyramid=2 / b_adapt=2 / b_bias=0 / direct=1 / weightb=1 / open_gop=0 / weightp=2 / keyint=240 / keyint_min=23 / scenecut=40 / intra_refresh=0 / rc_lookahead=40 / rc=2pass / mbtree=1 / bitrate=6899 / ratetol=1.0 / qcomp=0.60 / qpmin=0 / qpmax=69 / qpstep=4 / cplxblur=20.0 / qblur=0.5 / vbv_maxrate=50000 / vbv_bufsize=62500 / nal_hrd=none / filler=0 / ip_ratio=1.10 / aq=3:0.80
Language : English
Default : Yes
Forced : No
Audio #1
ID : 2
Format : AC-3
Format/Info : Audio Coding 3
Codec ID : A_AC3
Duration : 2 h 27 min
Bit rate mode : Constant
Bit rate : 640 kb/s
Channel(s) : 6 channels
Channel positions : Front: L C R, Side: L R, LFE
Sampling rate : 48.0 kHz
Frame rate : 31.250 FPS (1536 SPF)
Bit depth : 16 bits
Compression mode : Lossy
Stream size : 675 MiB (8%)
Title : Дублированный (Blu-ray EUR)
Language : Russian
Service kind : Complete Main
Default : Yes
Forced : No
Audio #2
ID : 3
Format : AC-3
Format/Info : Audio Coding 3
Codec ID : A_AC3
Duration : 2 h 27 min
Bit rate mode : Constant
Bit rate : 160 kb/s
Channel(s) : 2 channels
Channel positions : Front: L R
Sampling rate : 48.0 kHz
Frame rate : 31.250 FPS (1536 SPF)
Bit depth : 16 bits
Compression mode : Lossy
Stream size : 169 MiB (2%)
Title : Дублированный (iTunes)
Language : Ukrainian
Service kind : Complete Main
Default : No
Forced : No
Audio #3
ID : 4
Format : AC-3
Format/Info : Audio Coding 3
Codec ID : A_AC3
Duration : 2 h 27 min
Bit rate mode : Constant
Bit rate : 384 kb/s
Channel(s) : 6 channels
Channel positions : Front: L C R, Side: L R, LFE
Sampling rate : 48.0 kHz
Frame rate : 31.250 FPS (1536 SPF)
Bit depth : 16 bits
Compression mode : Lossy
Stream size : 405 MiB (5%)
Title : Оригинал
Language : English
Service kind : Complete Main
Default : No
Forced : No
Text #1
ID : 5
Format : UTF-8
Codec ID : S_TEXT/UTF8
Codec ID/Info : UTF-8 Plain Text
Title : Forced
Language : Russian
Default : Yes
Forced : No
Text #2
ID : 6
Format : UTF-8
Codec ID : S_TEXT/UTF8
Codec ID/Info : UTF-8 Plain Text
Title : Full
Language : Russian
Default : No
Forced : No
Text #3
ID : 7
Format : UTF-8
Codec ID : S_TEXT/UTF8
Codec ID/Info : UTF-8 Plain Text
Title : Forced
Language : Ukrainian
Default : No
Forced : No
Text #4
ID : 8
Format : UTF-8
Codec ID : S_TEXT/UTF8
Codec ID/Info : UTF-8 Plain Text
Title : Full
Language : Ukrainian
Default : No
Forced : No
Text #5
ID : 9
Format : UTF-8
Codec ID : S_TEXT/UTF8
Codec ID/Info : UTF-8 Plain Text
Title : SDH
Language : English
Default : No
Forced : No
Text #6
ID : 10
Format : UTF-8
Codec ID : S_TEXT/UTF8
Codec ID/Info : UTF-8 Plain Text
Language : English
Default : No
Forced : No
Menu
00:00:00.000 : en:00:00:00.000
00:10:37.011 : en:00:10:37.011
00:17:11.405 : en:00:17:11.405
00:26:57.241 : en:00:26:57.241
00:35:56.654 : en:00:35:56.654
00:49:18.414 : en:00:49:18.414
01:00:00.806 : en:01:00:00.806
01:10:23.719 : en:01:10:23.719
01:17:07.289 : en:01:17:07.289
01:28:28.470 : en:01:28:28.470
01:39:09.652 : en:01:39:09.652
01:46:26.547 : en:01:46:26.547
01:55:45.564 : en:01:55:45.564
02:03:10.592 : en:02:03:10.592
02:14:00.908 : en:02:14:00.908
02:19:48.088 : en:02:19:48.088

Скриншоты

Скриншоты:

[Цитировать]



Показать сообщения:    

Текущее время: 28-Ноя 01:54

Часовой пояс: UTC + 6


Вы не можете начинать темы
Вы не можете отвечать на сообщения
Вы не можете редактировать свои сообщения
Вы не можете удалять свои сообщения
Вы не можете голосовать в опросах
Вы не можете прикреплять файлы к сообщениям
Вы не можете скачивать файлы

!ВНИМАНИЕ!
Сайт не предоставляет электронные версии произведений, а занимается лишь коллекционированием и каталогизацией ссылок, присылаемых и публикуемых на форуме нашими читателями. Если вы являетесь правообладателем какого-либо представленного материала и не желаете, чтобы ссылка на него находилась в нашем каталоге, свяжитесь с нами, и мы незамедлительно удалим ее. Файлы для обмена на трекере предоставлены пользователями сайта, и администрация не несет ответственности за их содержание. Просьба не заливать файлы, защищенные авторскими правами, а также файлы нелегального содержания!