***Уважаемые пользователи и гости !!! Сайт переехал на новый домен Torrents-club.info. Просьба изменить ваши закладки! ***
 
[ Сегодня идет свободное скачивание без начисления Download ]


Статистика раздачи
Нет
 
   
 
 
 
Хэллоуин / Halloween (2018) WEBRip-HEVC 2160p | 4K Информация о фильме
Название: Хэллоуин
Оригинальное название: Halloween
Год выхода: 2018
Жанр: Ужасы, триллер
Режиссер: Дэвид Гордон Грин
В ролях: Джейми Ли Кёртис, Джуди Грир, Энди Мэтичак, Джеймс Джуд Кортни, Ник Касл, Халук Бильгинер, Уилл Пэттон, Риан Риис, Джефферсон Холл, Тоби Хасс
О фильме:
Зло неизменно возвращается, и им нельзя управлять. Его можно временно уничтожить, застрелить, сжечь, но вернется оно всё равно неизбежно. Майкл Майерс не закончил свое дело в Хэддонфилде, и скоро он вернётся домой, чтобы снова убивать.

Страна: США
Студия: Blumhouse Productions, Miramax, Rough House Pictures
Продолжительность: 01:45:42
Перевод: Дублированный | iTunes
Файл
Качество: WEBRip-HEVC 2160p | 4K | HDR | iTunes
Видео: HEVC/H.265, HDR, 3840x1604, ~20,8 Mbps, 23.976 fps
Звук:
Аудио 1: AC3, 6 ch, 384 Kbps - Русский
Аудио 2: AC3, 6 ch, 384 Kbps - Английский
Субтитры: Английские

Mediainfo

Общее
Уникальный идентификатор : 253371493930863630699250232166904969898 (0xBE9D9320F3B7830BB9158310368B3AAA)
Полное имя : Halloween.2018.HDR.2160p.WEBRip.mkv
Формат : Matroska
Версия формата : Version 4
Размер файла : 15,9 Гбайт
Продолжительность : 1 ч. 45 м.
Общий поток : 21,6 Мбит/сек
Дата кодирования : UTC 2018-12-27 21:11:35
Программа кодирования : mkvmerge v23.0.0 ('The Bride Said No') 64-bit
Библиотека кодирования : libebml v1.3.6 + libmatroska v1.4.9
Видео
Идентификатор : 1
Формат : HEVC
Формат/Информация : High Efficiency Video Coding
Коммерческое название : HDR10
Профиль формата : Main 10@L5@Main
Идентификатор кодека : V_MPEGH/ISO/HEVC
Продолжительность : 1 ч. 45 м.
Битрейт : 20,8 Мбит/сек
Ширина : 3840 пикселей
Высота : 1604 пикселя
Соотношение сторон : 2,40:1
Режим частоты кадров : Постоянный
Частота кадров : 23,976 (24000/1001) кадра/сек
Цветовое пространство : YUV
Субдискретизация насыщенности : 4:2:0
Битовая глубина : 10 бит
Бит/(Пиксели*Кадры) : 0.141
Размер потока : 15,4 Гбайт (96%)
Язык : English
Default : Да
Forced : Нет
Цветовой диапазон : Limited
Основные цвета : BT.2020
Характеристики трансфера : PQ
Коэффициенты матрицы : BT.2020 non-constant
MasteringDisplay_ColorPrimaries : Display P3
MasteringDisplay_Luminance : min: 0.0050 cd/m2, max: 1000 cd/m2
MaxCLL : 960 cd/m2
MaxFALL : 105 cd/m2
Аудио #1
Идентификатор : 2
Формат : AC-3
Формат/Информация : Audio Coding 3
Коммерческое название : Dolby Digital
Идентификатор кодека : A_AC3
Продолжительность : 1 ч. 45 м.
Вид битрейта : Постоянный
Битрейт : 384 Кбит/сек
Каналы : 6 каналов
Channel layout : L R C LFE Ls Rs
Частота : 48,0 КГц
Частота кадров : 31,250 кадров/сек (1536 SPF)
Битовая глубина : 16 бит
Метод сжатия : С потерями
Размер потока : 290 Мбайт (2%)
Заголовок : DUB | iTunes
Язык : Russian
ServiceKind : Complete Main
Default : Да
Forced : Нет
Аудио #2
Идентификатор : 3
Формат : AC-3
Формат/Информация : Audio Coding 3
Коммерческое название : Dolby Digital
Идентификатор кодека : A_AC3
Продолжительность : 1 ч. 45 м.
Вид битрейта : Постоянный
Битрейт : 384 Кбит/сек
Каналы : 6 каналов
Channel layout : L R C LFE Ls Rs
Частота : 48,0 КГц
Частота кадров : 31,250 кадров/сек (1536 SPF)
Битовая глубина : 16 бит
Метод сжатия : С потерями
Размер потока : 290 Мбайт (2%)
Язык : English
ServiceKind : Complete Main
Default : Нет
Forced : Нет
Текст
Идентификатор : 4
Формат : UTF-8
Идентификатор кодека : S_TEXT/UTF8
Идентификатор кодека/Информация : UTF-8 Plain Text
Продолжительность : 1 ч. 38 м.
Битрейт : 54 бит/сек
ElementCount : 1364
Размер потока : 39,7 Кбайт (0%)
Заголовок : Full
Язык : English
Default : Нет
Forced : Нет

[Цитировать]



Показать сообщения:    

Текущее время: 30-Ноя 09:59

Часовой пояс: UTC + 6


Вы не можете начинать темы
Вы не можете отвечать на сообщения
Вы не можете редактировать свои сообщения
Вы не можете удалять свои сообщения
Вы не можете голосовать в опросах
Вы не можете прикреплять файлы к сообщениям
Вы не можете скачивать файлы

!ВНИМАНИЕ!
Сайт не предоставляет электронные версии произведений, а занимается лишь коллекционированием и каталогизацией ссылок, присылаемых и публикуемых на форуме нашими читателями. Если вы являетесь правообладателем какого-либо представленного материала и не желаете, чтобы ссылка на него находилась в нашем каталоге, свяжитесь с нами, и мы незамедлительно удалим ее. Файлы для обмена на трекере предоставлены пользователями сайта, и администрация не несет ответственности за их содержание. Просьба не заливать файлы, защищенные авторскими правами, а также файлы нелегального содержания!