***Уважаемые пользователи и гости !!! Сайт переехал на новый домен Torrents-club.info. Просьба изменить ваши закладки! ***
 
[ Сегодня идет свободное скачивание без начисления Download ]


Статистика раздачи
Нет
 
   
 
 
 
Белые росы. Возвращение
Информация
Название: Белые росы. Возвращение
Год выпуска: 2014
Жанр: Комедия
Режиссёр: Александра Бутор
В ролях: Юозас Будрайтис, Виктор Манаев, Павел Южаков-Харланчук, Сергей Жбанков, Ирина Егорова, Андрей Мерзликин, Анна Полупанова, Евгения Жукович, Юлия Смирнова, Татьяна Гаркуша, Николай Караченцов, Жорж Девдариани, Анатолий Голуб, Вера Полякова, Максим Пониматченко, Павел Адамчиков, Галина Кухальская
Описание: Пожив в городе, Андрей Ходас возвращается к земле и селится на хуторе. Однако стремительно разрастающийся город настигает его и здесь. Пара молодых и энергичных бизнесменов намерена выкупить живописный уголок для нового строительства и пытается выселить его немногочисленных обитателей. Спасая свой хрупкий мир от вторжения и разрушений, Андрей помогает всей семье вспомнить о своих корнях и распутать проблемы, казавшиеся неразрешимыми в суетливой атмосфере городской жизни.

Выпущено: Беларусь | Беларусьфильм
Продолжительность: 01:40:33
Перевод: Не требуется
Файл
Качество: WEB-DLRip
Формат: AVI
Видео: XviD build 73, 720x304 (2.35:1), 25.000 fps, 1870 Kbps (0.342 bit/pixel)
Аудио: 48.0 kHz, AC3, 2/0 ch, 192 kbps

Скриншоты

MediaInfo

General
Complete name : D:RazdachiBelye.Rosy.Vozvrashenie.2014.XviD.WEB-DLRip.GeneralFilm.avi
Format : AVI
Format/Info : Audio Video Interleave
File size : 1.45 GiB
Duration : 1 h 40 min
Overall bit rate : 2 071 kb/s
Writing application : VirtualDubMod 1.5.10.3 | www.virtualdub-fr.org || (build 2550/release)
Writing library : VirtualDubMod build 2550/release
Video
ID : 0
Format : MPEG-4 Visual
Format profile : Advanced Simple@L5
Format settings, BVOP : 1
Format settings, QPel : No
Format settings, GMC : No warppoints
Format settings, Matrix : Custom
Codec ID : XVID
Codec ID/Hint : XviD
Duration : 1 h 40 min
Bit rate : 1 870 kb/s
Width : 720 pixels
Height : 304 pixels
Display aspect ratio : 2.35:1
Frame rate : 25.000 FPS
Color space : YUV
Chroma subsampling : 4:2:0
Bit depth : 8 bits
Scan type : Progressive
Compression mode : Lossy
Bits/(Pixel*Frame) : 0.342
Stream size : 1.31 GiB (90%)
Writing library : XviD 73
Audio
ID : 1
Format : AC-3
Format/Info : Audio Coding 3
Format settings, Endianness : Big
Codec ID : 2000
Duration : 1 h 40 min
Bit rate mode : Constant
Bit rate : 192 kb/s
Channel(s) : 2 channels
Channel positions : Front: L R
Sampling rate : 48.0 kHz
Frame rate : 31.250 FPS (1536 SPF)
Bit depth : 16 bits
Compression mode : Lossy
Stream size : 138 MiB (9%)
Alignment : Split accross interleaves
Interleave, duration : 40 ms (1.00 video frame)
Interleave, preload duratio : 500 ms
Service kind : Complete Main

[Цитировать]



Показать сообщения:    

Текущее время: 01-Дек 19:42

Часовой пояс: UTC + 6


Вы не можете начинать темы
Вы не можете отвечать на сообщения
Вы не можете редактировать свои сообщения
Вы не можете удалять свои сообщения
Вы не можете голосовать в опросах
Вы не можете прикреплять файлы к сообщениям
Вы не можете скачивать файлы

!ВНИМАНИЕ!
Сайт не предоставляет электронные версии произведений, а занимается лишь коллекционированием и каталогизацией ссылок, присылаемых и публикуемых на форуме нашими читателями. Если вы являетесь правообладателем какого-либо представленного материала и не желаете, чтобы ссылка на него находилась в нашем каталоге, свяжитесь с нами, и мы незамедлительно удалим ее. Файлы для обмена на трекере предоставлены пользователями сайта, и администрация не несет ответственности за их содержание. Просьба не заливать файлы, защищенные авторскими правами, а также файлы нелегального содержания!