***Уважаемые пользователи и гости !!! Сайт переехал на новый домен Torrents-club.info. Просьба изменить ваши закладки! ***
 
[ Сегодня идет свободное скачивание без начисления Download ]


Статистика раздачи
Нет
 
   
 
 
 
Ничего хорошего в отеле «Эль рояль» / Bad Times at the El Royale (2018) UHD BDRemux 2160p | 4K Информация о фильме
Название: Ничего хорошего в отеле «Эль рояль»
Оригинальное название: Bad Times at the El Royale
Год выхода: 2018
Жанр: Триллер, детектив
Режиссер: Дрю Годдард
В ролях: Крис Хемсворт, Дакота Джонсон, Джефф Бриджес, Синтия Эриво, Джон Хэмм, Кэйли Спэни, Льюис Пуллман, Ксавье Долан, Ник Офферман, Ши Уигхэм, Кэтрин Изабель, Мэнни Хасинто, Марк О`Брайэн, Чарльз Халфорд, Джим О`Хейр, Джерри Нэйрн, Альвина Аугуст, Джонатан Уайтселл, Софиа Локлин Херт

О фильме:
1969 год. Группа разношерстных личностей останавливается на ночь в когда-то популярном отеле «Эль Рояль», расположенном на границе штатов Невада и Калифорния. В здании отеля собрались неприветливый священник, певица Дарлин, энергичный продавец пылесосов и подозрительная девушка с Юга. Вместе с ними ночь в отеле проводит молодой консьерж. Каждому из них есть что скрывать, и у каждого из них будет шанс искупить прошлые грехи. Но ситуация только осложняется, когда в «Эль Рояль» появляется зловещий, но обаятельный лидер культа, желающий получить свое.
Страна: США
Студия: 20th Century Fox Film Corporation
Продолжительность: 02:21:37
Перевод: Дублированный | iTunes
Качество: BDRemux 2160p
Видео: MPEG-H HEVC HDR Video, 3840x2160, 46.0 Mbit/s, 23.976 fps
Звук:
Аудио #01: 48 kHz, AC3, 5.1, 384 Kbps | iTunes | RUS |
Аудио #02: 48 kHz, AC3, 2.0, 192 Kbps | iTunes | UKR |
Аудио #03: 48 kHz, TrueHD, 7.1, 4443 Kbps | Оригинал | ENG |
Аудио #04: 48 kHz, AC3, 5.1, 640 Kbps | Оригинал | ENG |
Субтитры: Русские (Forced, full), украинские (Forced), английские

MI

General
Unique ID : 173637593557628980108331997594942967255 (0x82A16253BF9131114F80A8148F8C0DD7)
Complete name : D:Video111Bad.Times.at.the.El.Royale.2018.BDREMUX.2160p.4K.HEVC.HDR.seleZen.mkv
Format : Matroska
Format version : Version 4
File size : 51.2 GiB
Duration : 2 h 21 min
Overall bit rate mode : Variable
Overall bit rate : 51.7 Mb/s
Movie name : Bad Times at the El Royale (2018) 4K from селезень
Encoded date : UTC 2019-01-03 22:43:31
Writing application : mkvmerge v29.0.0 ('Like It Or Not') 64-bit
Writing library : libebml v1.3.6 + libmatroska v1.4.9
Video
ID : 1
Format : HEVC
Format/Info : High Efficiency Video Coding
Commercial name : HDR10
Format profile : Main 10@L5.1@High
Codec ID : V_MPEGH/ISO/HEVC
Duration : 2 h 21 min
Bit rate : 46.0 Mb/s
Width : 3 840 pixels
Height : 2 160 pixels
Display aspect ratio : 16:9
Frame rate mode : Constant
Frame rate : 23.976 (24000/1001) FPS
Color space : YUV
Chroma subsampling : 4:2:0 (Type 2)
Bit depth : 10 bits
Bits/(Pixel*Frame) : 0.231
Stream size : 45.5 GiB (89%)
Writing library : ATEME Titan File 3.9.0 (4.9.0.0)
Language : English
Default : Yes
Forced : No
Color range : Limited
Color primaries : BT.2020
Transfer characteristics : PQ
Matrix coefficients : BT.2020 non-constant
Mastering display color pri : Display P3
Mastering display luminance : min: 0.0050 cd/m2, max: 1000 cd/m2
Audio #1
ID : 2
Format : AC-3
Format/Info : Audio Coding 3
Commercial name : Dolby Digital
Codec ID : A_AC3
Duration : 2 h 21 min
Bit rate mode : Constant
Bit rate : 384 kb/s
Channel(s) : 6 channels
Channel layout : L R C LFE Ls Rs
Sampling rate : 48.0 kHz
Frame rate : 31.250 FPS (1536 SPF)
Bit depth : 16 bits
Compression mode : Lossy
Stream size : 389 MiB (1%)
Title : DUB [iTunes]
Language : Russian
Service kind : Complete Main
Default : Yes
Forced : Yes
Audio #2
ID : 3
Format : AC-3
Format/Info : Audio Coding 3
Commercial name : Dolby Digital
Codec ID : A_AC3
Duration : 2 h 21 min
Bit rate mode : Constant
Bit rate : 192 kb/s
Channel(s) : 2 channels
Channel layout : L R
Sampling rate : 48.0 kHz
Frame rate : 31.250 FPS (1536 SPF)
Bit depth : 16 bits
Compression mode : Lossy
Stream size : 195 MiB (0%)
Title : [iTunes]
Language : Ukrainian
Service kind : Complete Main
Default : No
Forced : No
Audio #3
ID : 4
Format : MLP FBA 16-ch
Format/Info : Meridian Lossless Packing FBA with 16-channel presentation
Commercial name : Dolby TrueHD with Dolby Atmos
Codec ID : A_TRUEHD
Duration : 2 h 21 min
Bit rate mode : Variable
Bit rate : 4 443 kb/s
Maximum bit rate : 8 373 kb/s
Channel(s) : 8 channels
Channel layout : L R C LFE Ls Rs Lb Rb
Sampling rate : 48.0 kHz
Frame rate : 1 200.000 FPS (40 SPF)
Compression mode : Lossless
Delay relative to video : 32 ms
Stream size : 4.40 GiB (9%)
Title : Original
Language : English
Default : No
Forced : No
Number of dynamic objects : 13
Bed channel count : 1 channel
Bed channel configuration : LFE
Audio #4
ID : 5
Format : AC-3
Format/Info : Audio Coding 3
Commercial name : Dolby Digital
Codec ID : A_AC3
Duration : 2 h 21 min
Bit rate mode : Constant
Bit rate : 640 kb/s
Channel(s) : 6 channels
Channel layout : L R C LFE Ls Rs
Sampling rate : 48.0 kHz
Frame rate : 31.250 FPS (1536 SPF)
Bit depth : 16 bits
Compression mode : Lossy
Delay relative to video : 31 ms
Stream size : 648 MiB (1%)
Language : English
Service kind : Complete Main
Default : No
Forced : No
Text #1
ID : 6
Format : UTF-8
Codec ID : S_TEXT/UTF8
Codec ID/Info : UTF-8 Plain Text
Duration : 2 h 17 min
Bit rate : 0 b/s
Count of elements : 11
Stream size : 329 Bytes (0%)
Title : Forced
Language : Russian
Default : Yes
Forced : Yes
Text #2
ID : 7
Format : UTF-8
Codec ID : S_TEXT/UTF8
Codec ID/Info : UTF-8 Plain Text
Duration : 2 h 17 min
Bit rate : 57 b/s
Count of elements : 1316
Stream size : 57.6 KiB (0%)
Title : Full
Language : Russian
Default : No
Forced : No
Text #3
ID : 8
Format : UTF-8
Codec ID : S_TEXT/UTF8
Codec ID/Info : UTF-8 Plain Text
Duration : 2 h 11 min
Bit rate : 0 b/s
Count of elements : 14
Stream size : 525 Bytes (0%)
Title : Forced
Language : Ukrainian
Default : No
Forced : No
Text #4
ID : 9
Format : UTF-8
Codec ID : S_TEXT/UTF8
Codec ID/Info : UTF-8 Plain Text
Duration : 2 h 13 min
Bit rate : 41 b/s
Count of elements : 1467
Stream size : 40.5 KiB (0%)
Title : Full
Language : English
Default : No
Forced : No
Text #5
ID : 10
Format : UTF-8
Codec ID : S_TEXT/UTF8
Codec ID/Info : UTF-8 Plain Text
Duration : 2 h 18 min
Bit rate : 45 b/s
Count of elements : 1711
Stream size : 46.2 KiB (0%)
Title : SDH
Language : English
Default : No
Forced : No
Menu
00:00:00.000 : :Глава 01
00:04:19.592 : :Глава 02
00:19:21.994 : :Глава 03
00:34:32.737 : :Глава 04
00:49:24.711 : :Глава 05
00:51:19.868 : :Глава 06
01:16:01.473 : :Глава 07
01:37:13.369 : :Глава 08
02:03:56.720 : :Глава 09
02:14:09.041 : :Глава 10
02:15:45.428 : :Глава 11

[Цитировать]



Показать сообщения:    

Текущее время: 30-Ноя 09:51

Часовой пояс: UTC + 6


Вы не можете начинать темы
Вы не можете отвечать на сообщения
Вы не можете редактировать свои сообщения
Вы не можете удалять свои сообщения
Вы не можете голосовать в опросах
Вы не можете прикреплять файлы к сообщениям
Вы не можете скачивать файлы

!ВНИМАНИЕ!
Сайт не предоставляет электронные версии произведений, а занимается лишь коллекционированием и каталогизацией ссылок, присылаемых и публикуемых на форуме нашими читателями. Если вы являетесь правообладателем какого-либо представленного материала и не желаете, чтобы ссылка на него находилась в нашем каталоге, свяжитесь с нами, и мы незамедлительно удалим ее. Файлы для обмена на трекере предоставлены пользователями сайта, и администрация не несет ответственности за их содержание. Просьба не заливать файлы, защищенные авторскими правами, а также файлы нелегального содержания!