***Уважаемые пользователи и гости !!! Сайт переехал на новый домен Torrents-club.info. Просьба изменить ваши закладки! ***
 
[ Сегодня идет свободное скачивание без начисления Download ]


Статистика раздачи
Нет
 
   
 
 
 
 
Ральф против интернета / Ralph Breaks the Internet / 2018 [4K, HEVC, HDR, UHD / BDRip] (2160p) Год выпуска: 2018
Жанр: Мультфильм, фэнтези, комедия, приключения, семейный, полнометражный
Выпущено: США, Walt Disney Animation Studios, Walt Disney Pictures
Режиссер: Фил Джонстон, Рич Мур
Продолжительность: 01:52:31
Перевод: Дублированный
Субтитры: Русские, английские, испанские, французские
В ролях: Джон С. Райлли, Сара Силверман, Галь Гадот, Тараджи П. Хенсон, Джек МакБрайер, Джейн Линч, Алан Тьюдик, Альфред Молина, Эд О`Нил, Шон Джамброун
О фильме: И вот снова они: нолики и единички, крошечные пылинки в нетленной вселенной. Кибергонщица и виртуальный Громила - неразлучные друзья, перед которыми, волею игрового божества, открывается параллельная цифровая реальность: безграничное пространство Интернета, наделённое своими правилами, сложностями, заманчивыми и запретными территориями. И конечно - соблазнами. И вот они снова на пороге головокружительных приключений, милых курьёзов или мнимых, но оттого не менее потрясающих и жестких опасностей. Эти неподражаемые и выразительные герои оставят яркие отпечатки веселья, оттенки грусти и шлейфы трогательных огоньков, сверкающих искрами запредельного драйва на захватывающих и непредсказуемых сетевых разворотах. Потрясный Глюк!
Техданные
Качество: BDRip (2160p)
Видео: HEVC, 10600 Кбит/с, 3840x1606, 23.976 кадр/с, 10 бит
Аудио: Русский (AC3, 6 ch, 384 Кбит/с), английский (TrueHD, 8 ch, 4633 Кбит/с), (AC3, 6 ch, 640 Кбит/с)

Релиз

Мастер 5
Формат: Main 10@L5.1@High_x265_HDR10
Цветовой праймериз: BT.2020
Характеристики передачи: PQ
Матричные коэффициенты: BT.2020
Освоение основных цветов дисплея: Дисплей P3
Освоение яркости дисплея: мин: 0.0001 cd/m2, max: 1000 cd/m2
Аудио: AC-3, 6 ch, 384 kbps ( Дублированный | iTunes)
Аудио: Dolby TrueHD, 8 ch, 4633 kbps (Английский Оригинал)
Аудио: AC-3, 6 ch, 640 kbps (Английский Оригинал)
Субтитры: Русские (форс.), английские, испанские, французкие

MediaInfo:

Общее
Уникальный идентификатор : 184773260647852682220695622176761678046 (0x8B02091A7C1F065E8337479B43F388DE)
Полное имя : D:\Передел_2\Новая папка (7)\Ralph.Breaks.the.Internet.2018.2160p.BDRip.x265.HDR.10bit.Master5.mkv
Формат : Matroska
Версия формата : Version 4
Размер файла : 8,33 Гбайт
Продолжительность : 1 ч. 52 м.
Режим общего битрейта : Переменный
Общий поток : 10,6 Мбит/сек
Название фильма : Ralph.Breaks.the.Internet.2018.2160p.BDRip.x265.HDR.10bit.Master5
Дата кодирования : UTC 2019-02-24 06:14:15
Программа кодирования : mkvmerge v7.9.0 ('Birds') 64bit
Библиотека кодирования : libebml v1.3.1 + libmatroska v1.4.2
Видео
Идентификатор : 1
Формат : HEVC
Формат/Информация : High Efficiency Video Coding
Коммерческое название : HDR10
Профиль формата : Main 10@L5.1@High
Идентификатор кодека : V_MPEGH/ISO/HEVC
Продолжительность : 1 ч. 52 м.
Битрейт : 4823 Кбит/сек
Ширина : 3840 пикселей
Высота : 1606 пикселей
Соотношение сторон : 2,40:1
Режим частоты кадров : Постоянный
Частота кадров : 23,976 (24000/1001) кадра/сек
Цветовое пространство : YUV
Субдискретизация насыщенности : 4:2:0 (Type 2)
Битовая глубина : 10 бит
Бит/(Пиксели*Кадры) : 0.033
Размер потока : 3,79 Гбайт (46%)
Заголовок : Ralph.Breaks.the.Internet.2018.2160p.BDRip.x265.HDR.10bit.Master5
Библиотека кодирования : x265 3.0_Au+4-dcbec33bfb0f:[Windows][GCC 6.3.0][64 bit] 10bit
Настройки программы : cpuid=1111039 / frame-threads=4 / numa-pools=20 / wpp / no-pmode / no-pme / no-psnr / no-ssim / log-level=2 / input-csp=1 / input-res=3840x1606 / interlace=0 / total-frames=161866 / level-idc=51 / high-tier=1 / uhd-bd=0 / ref=4 / no-allow-non-conformance / repeat-headers / annexb / aud / hrd / info / hash=0 / no-temporal-layers / no-open-gop / min-keyint=1 / keyint=24 / gop-lookahead=0 / bframes=4 / b-adapt=2 / b-pyramid / bframe-bias=0 / rc-lookahead=25 / lookahead-slices=4 / scenecut=40 / radl=0 / no-splice / no-intra-refresh / ctu=64 / min-cu-size=8 / rect / no-amp / max-tu-size=32 / tu-inter-depth=1 / tu-intra-depth=1 / limit-tu=0 / rdoq-level=2 / dynamic-rd=0.00 / no-ssim-rd / signhide / no-tskip / nr-intra=0 / nr-inter=0 / no-constrained-intra / no-strong-intra-smoothing / max-merge=3 / limit-refs=3 / limit-modes / me=3 / subme=3 / merange=57 / temporal-mvp / weightp / no-weightb / no-analyze-src-pics / deblock=-3:-3 / no-sao / no-sao-non-deblock / rd=4 / no-early-skip / rskip / no-fast-intra / no-tskip-fast / no-cu-lossless / no-b-intra / no-splitrd-skip / rdpenalty=0 / psy-rd=2.00 / psy-rdoq=1.00 / no-rd-refine / no-lossless / cbqpoffs=0 / crqpoffs=0 / rc=crf / crf=17.0 / qcomp=0.60 / qpstep=4 / stats-write=0 / stats-read=0 / vbv-maxrate=160000 / vbv-bufsize=160000 / vbv-init=0.9 / crf-max=0.0 / crf-min=0.0 / ipratio=1.40 / pbratio=1.30 / aq-mode=2 / aq-strength=1.00 / cutree / zone-count=0 / no-strict-cbr / qg-size=32 / no-rc-grain / qpmax=69 / qpmin=0 / no-const-vbv / sar=1 / overscan=0 / videoformat=5 / range=0 / colorprim=9 / transfer=16 / colormatrix=9 / chromaloc=1 / chromaloc-top=2 / chromaloc-bottom=2 / display-window=0 / master-display=G(13250,34500)B(7500,3000)R(34000,16000)WP(15635,16450)L(10000000,1) / max-cll=0,0 / min-luma=0 / max-luma=1023 / log2-max-poc-lsb=8 / vui-timing-info / vui-hrd-info / slices=1 / no-opt-qp-pps / no-opt-ref-list-length-pps / no-multi-pass-opt-rps / scenecut-bias=0.05 / no-opt-cu-delta-qp / no-aq-motion / hdr / hdr-opt / no-dhdr10-opt / no-idr-recovery-sei / analysis-reuse-level=5 / scale-factor=0 / refine-intra=0 / refine-inter=0 / refine-mv=0 / refine-ctu-distortion=0 / no-limit-sao / ctu-info=0 / no-lowpass-dct / refine-analysis-type=0 / copy-pic=1 / max-ausize-factor=1.0 / no-dynamic-refine / no-single-sei / no-hevc-aq / qp-adaptation-range=1.00
Default : Да
Forced : Нет
Цветовой диапазон : Limited
Основные цвета : BT.2020
Характеристики трансфера : PQ
Коэффициенты матрицы : BT.2020 non-constant
MasteringDisplay_ColorPrimaries : Display P3
MasteringDisplay_Luminance : min: 0.0001 cd/m2, max: 1000 cd/m2
Аудио #1
Идентификатор : 2
Формат : AC-3
Формат/Информация : Audio Coding 3
Коммерческое название : Dolby Digital
Идентификатор кодека : A_AC3
Продолжительность : 1 ч. 52 м.
Вид битрейта : Постоянный
Битрейт : 384 Кбит/сек
Каналы : 6 каналов
Channel layout : L R C LFE Ls Rs
Частота : 48,0 КГц
Частота кадров : 31,250 кадров/сек (1536 SPF)
Битовая глубина : 16 бит
Метод сжатия : С потерями
Размер потока : 309 Мбайт (4%)
Заголовок : DUB iTunes
Язык : Russian
ServiceKind/String : Complete Main
Default : Да
Forced : Нет
Аудио #2
Идентификатор : 3
Формат : MLP FBA 16-ch
Формат/Информация : Meridian Lossless Packing FBA with 16-channel presentation
Коммерческое название : Dolby TrueHD with Dolby Atmos
Идентификатор кодека : A_TRUEHD
Продолжительность : 1 ч. 52 м.
Вид битрейта : Переменный
Битрейт : 4633 Кбит/сек
Максимальный битрейт : 6441 Кбит/сек
Каналы : 8 каналов
Channel layout : L R C LFE Ls Rs Lb Rb
Частота : 48,0 КГц
Частота кадров : 1200,000 кадров/сек (40 SPF)
Метод сжатия : Без потерь
Размер потока : 3,64 Гбайт (44%)
Язык : English
Default : Нет
Forced : Нет
Number of dynamic objects : 13
Bed channel count : 1 канал
Bed channel configuration : LFE
Аудио #3
Идентификатор : 4
Формат : AC-3
Формат/Информация : Audio Coding 3
Коммерческое название : Dolby Digital
Идентификатор кодека : A_AC3
Продолжительность : 1 ч. 52 м.
Вид битрейта : Постоянный
Битрейт : 640 Кбит/сек
Каналы : 6 каналов
Channel layout : L R C LFE Ls Rs
Частота : 48,0 КГц
Частота кадров : 31,250 кадров/сек (1536 SPF)
Битовая глубина : 16 бит
Метод сжатия : С потерями
Размер потока : 515 Мбайт (6%)
Язык : English
ServiceKind/String : Complete Main
Default : Нет
Forced : Нет
Текст #1
Идентификатор : 5
Формат : UTF-8
Идентификатор кодека : S_TEXT/UTF8
Идентификатор кодека/Информация : UTF-8 Plain Text
Продолжительность : 1 ч. 41 м.
Битрейт : 2 бит/сек
ElementCount : 46
Размер потока : 1,56 Кбайт (0%)
Заголовок : Forced
Язык : Russian
Default : Да
Forced : Нет
Текст #2
Идентификатор : 6
Формат : PGS
Режим смешивания : zlib
Идентификатор кодека : S_HDMV/PGS
Идентификатор кодека/Информация : Picture based subtitle format used on BDs/HD-DVDs
Продолжительность : 1 ч. 51 м.
Битрейт : 19,1 Кбит/сек
ElementCount : 4922
Размер потока : 15,3 Мбайт (0%)
Язык : English
Default : Нет
Forced : Нет
Текст #3
Идентификатор : 7
Формат : PGS
Режим смешивания : zlib
Идентификатор кодека : S_HDMV/PGS
Идентификатор кодека/Информация : Picture based subtitle format used on BDs/HD-DVDs
Продолжительность : 1 ч. 51 м.
Битрейт : 15,1 Кбит/сек
ElementCount : 3944
Размер потока : 12,0 Мбайт (0%)
Язык : French
Default : Нет
Forced : Нет
Текст #4
Идентификатор : 8
Формат : PGS
Режим смешивания : zlib
Идентификатор кодека : S_HDMV/PGS
Идентификатор кодека/Информация : Picture based subtitle format used on BDs/HD-DVDs
Продолжительность : 1 ч. 51 м.
Битрейт : 14,9 Кбит/сек
ElementCount : 3850
Размер потока : 11,9 Мбайт (0%)
Язык : Spanish
Default : Нет
Forced : Нет
Меню
00:00:00.000 : :Chapter 01
00:04:09.666 : :Chapter 02
00:11:07.417 : :Chapter 03
00:17:28.923 : :Chapter 04
00:23:43.881 : :Chapter 05
00:27:54.589 : :Chapter 06
00:34:18.807 : :Chapter 07
00:41:39.956 : :Chapter 08
00:51:27.709 : :Chapter 09
00:58:04.606 : :Chapter 10
01:01:50.957 : :Chapter 11
01:06:17.306 : :Chapter 12
01:12:31.806 : :Chapter 13
01:19:10.120 : :Chapter 14
01:27:24.030 : :Chapter 15
01:38:26.775 : :Chapter 16

Скриншоты

[Цитировать]

https://torrents-club.info/viewtopic.php?t=137890

[Цитировать]

Топик был перенесен из форума Мультфильмы Ultra-HD / 4K в форум Поглощенные
killer110289



Показать сообщения:    

Текущее время: 14-Авг 05:04

Часовой пояс: UTC + 6


Вы не можете начинать темы
Вы не можете отвечать на сообщения
Вы не можете редактировать свои сообщения
Вы не можете удалять свои сообщения
Вы не можете голосовать в опросах
Вы не можете прикреплять файлы к сообщениям
Вы не можете скачивать файлы

!ВНИМАНИЕ!
Сайт не предоставляет электронные версии произведений, а занимается лишь коллекционированием и каталогизацией ссылок, присылаемых и публикуемых на форуме нашими читателями. Если вы являетесь правообладателем какого-либо представленного материала и не желаете, чтобы ссылка на него находилась в нашем каталоге, свяжитесь с нами, и мы незамедлительно удалим ее. Файлы для обмена на трекере предоставлены пользователями сайта, и администрация не несет ответственности за их содержание. Просьба не заливать файлы, защищенные авторскими правами, а также файлы нелегального содержания!