***Уважаемые пользователи и гости !!! Сайт переехал на новый домен Torrents-club.info. Просьба изменить ваши закладки! ***
 
[ Сегодня идет свободное скачивание без начисления Download ]


Статистика раздачи
Нет
 
   
 
 
 
 
Синонимы / SynonymesИнформация о фильме
Название: Синонимы
Оригинальное название: Synonymes
Год выхода: 2019
Жанр: драма
Режиссер: Надав Лапид
В ролях: Том Мерсье, Кантен Дольмер, Луиз Шевильот, Урия Хаик, Оливье Лусто, Йехуда Альмагор, Гайя Фон Шварце, Гал Амитай, Идан Ашкенази, Долев Охана и др.
Опсиание: Израильтянин Йоав прилетает в зимний Париж в надежде, что Франция станет его новым домом, а французский язык — новым средством общения с миром. За один день герой успевает вселиться в чужую брошенную квартиру, потерять все свои вещи, чуть не умереть от переохлаждения и завести новых друзей. Богемные спасители дарят ему пачку евро, айфон, великолепное горчичное пальто Kenzo и обманчивую уверенность в том, что со временем он сможет стать настоящим французом.

Страна: Франция, Израиль, Германия
Продолжительность: 02:03:39
Перевод: профессиональное (многоголосый закадровый) iTunes
Файл
Качество: WEB-DL 1080p
Видео: MPEG-4 AVC, 4448 kbps, 1912x792
Звук: AC3, 6 ch, 384 kbps
Субтитры: нет

Скриншоты

MediaInfo

Общее
Уникальный идентификатор : 249496266049398511421729880230898141144 (0xBBB33BA48F529F709D57D60CD21787D8)
Полное имя : Synonymes.2019.WEB-DL.1080p.ELEKTRI4KA.UNIONGANG.mkv
Формат : Matroska
Версия формата : Version 2
Размер файла : 4,26 Гбайт
Продолжительность : 2 ч. 3 м.
Общий поток : 4930 Кбит/сек
Название фильма : Synonymes.2019..ELEKTRI4KA.UNIONGANG
Дата кодирования : UTC 2019-08-04 18:59:31
Программа кодирования : mkvmerge v7.8.0 ('River Man') 32bit built on Apr 3 2015 12:11:22
Библиотека кодирования : libebml v1.3.1 + libmatroska v1.4.2
Видео
Идентификатор : 2
Формат : AVC
Формат/Информация : Advanced Video Codec
Профиль формата : High@L4
Настройки формата : CABAC / 5 Ref Frames
Параметр CABAC формата : Да
Параметр RefFrames формата : 5 кадров
Идентификатор кодека : V_MPEG4/ISO/AVC
Продолжительность : 2 ч. 3 м.
Битрейт : 4448 Кбит/сек
Ширина : 1912 пикселей
Высота : 792 пикселя
Соотношение сторон : 2,40:1
Режим частоты кадров : Постоянный
Частота кадров : 23,976 (24000/1001) кадра/сек
Цветовое пространство : YUV
Субдискретизация насыщенности : 4:2:0
Битовая глубина : 8 бит
Тип развёртки : Прогрессивная
Бит/(Пиксели*Кадры) : 0.123
Размер потока : 3,84 Гбайт (90%)
Язык : English
Default : Да
Forced : Нет
Цветовой диапазон : Limited
Основные цвета : BT.709
Характеристики трансфера : BT.709
Коэффициенты матрицы : BT.709
Аудио
Идентификатор : 1
Формат : AC-3
Формат/Информация : Audio Coding 3
Коммерческое название : Dolby Digital
Идентификатор кодека : A_AC3
Продолжительность : 2 ч. 3 м.
Вид битрейта : Постоянный
Битрейт : 384 Кбит/сек
Каналы : 6 каналов
Channel layout : L R C LFE Ls Rs
Частота : 48,0 КГц
Частота кадров : 31,250 кадров/сек (1536 SPF)
Битовая глубина : 16 бит
Метод сжатия : С потерями
Размер потока : 340 Мбайт (8%)
Язык : Russian
ServiceKind : Complete Main
Default : Да
Forced : Нет
Меню
00:00:00.000 : en:1
00:01:39.000 : en:2
00:12:08.000 : en:3
00:21:55.000 : en:4
00:32:32.000 : en:5
00:42:45.000 : en:6
00:51:32.000 : en:7
01:00:46.000 : en:8
01:11:18.000 : en:9
01:21:43.000 : en:10
01:30:39.000 : en:11
01:42:08.000 : en:12
01:51:08.000 : en:13
02:00:03.000 : en:14

[Цитировать]



Показать сообщения:    

Текущее время: 22-Фев 18:51

Часовой пояс: UTC + 6


Вы не можете начинать темы
Вы не можете отвечать на сообщения
Вы не можете редактировать свои сообщения
Вы не можете удалять свои сообщения
Вы не можете голосовать в опросах
Вы не можете прикреплять файлы к сообщениям
Вы не можете скачивать файлы

!ВНИМАНИЕ!
Сайт не предоставляет электронные версии произведений, а занимается лишь коллекционированием и каталогизацией ссылок, присылаемых и публикуемых на форуме нашими читателями. Если вы являетесь правообладателем какого-либо представленного материала и не желаете, чтобы ссылка на него находилась в нашем каталоге, свяжитесь с нами, и мы незамедлительно удалим ее. Файлы для обмена на трекере предоставлены пользователями сайта, и администрация не несет ответственности за их содержание. Просьба не заливать файлы, защищенные авторскими правами, а также файлы нелегального содержания!