***Уважаемые пользователи и гости !!! Сайт переехал на новый домен Torrents-club.info. Просьба изменить ваши закладки! ***
 
[ Сегодня идет свободное скачивание без начисления Download ]


Статистика раздачи
Скачал: [ 10 ]
 
   
 
 
 
 
Куриоса / CuriosaИнформация о фильме
Название: Куриоса
Оригинальное название: Curiosa
Год выпуска: 2019
Жанр: Мелодрама, история
Режиссер: Лу Жене
В ролях: Ноэми Мерлан, Нильс Шнайдер, Бенжамен Лаверн, Камелия Джордана, Амира Казар, Скали Дельпейра, Эмильен Дьяр-Детоф, Матильда Варнье, Мелоди Ришар, Дамиен Боннар
О фильме: За основу сюжета этой исторической мелодрамы положены письма и дневники светских лиц, живших в Париже в конце девятнадцатого столетия. Сюжетная линия затрагивает непростые взаимоотношения между двумя мужчинами и одной женщиной. На первый взгляд может показаться, что это типичный любовный треугольник, но здесь всё намного серьёзнее. Всё дело в том, что в Париже само понятие "любви" воспринимается как-то по-особенному, так и эта история превратилась в чувственный любовный треугольник, ведь мужчины не хотят уступать, а женщине тяжело сделать выбор.

Страна: Франция
Студия: Canal+ [fr], Curiosa Films, Memento Films International, Memento Films Distribution
Продолжительность: 01:44:53
Перевод: Дублированный | iTunes
Файл
Качество: WEB-DL 1080p
Контейнер: MKV
Видео: MPEG-4 AVC, 1920x1038, 4781 Kbps, 24.000 fps
Аудио: Russian: AC3, 48.0 KHz, 6 ch, 384 kbps - iTunes
Субтитры: Нет

Скриншоты


MediaInfo

General
Unique ID : 209637881216775623288634291259024839803 (0x9DB6C98BECAB5093A4A6A10D992F947B)
Complete name : Curiosa.2019.WEB-DL.1080p.mkv
Format : Matroska
Format version : Version 2
File size : 3.86 GiB
Duration : 1 h 44 min
Overall bit rate : 5 270 kb/s
Encoded date : UTC 2019-08-21 15:39:05
Writing application : mkvmerge v5.8.0 ('No Sleep / Pillow') built on Sep 2 2012 15:37:04
Writing library : libebml v1.2.3 + libmatroska v1.3.0
Video
ID : 1
Format : AVC
Format/Info : Advanced Video Codec
Format profile : High@L4
Format settings, CABAC : Yes
Format settings, RefFrames : 4 frames
Codec ID : V_MPEG4/ISO/AVC
Duration : 1 h 44 min
Bit rate : 4 781 kb/s
Width : 1 920 pixels
Height : 1 038 pixels
Display aspect ratio : 1.85:1
Frame rate mode : Constant
Frame rate : 24.000 FPS
Color space : YUV
Chroma subsampling : 4:2:0
Bit depth : 8 bits
Scan type : Progressive
Bits/(Pixel*Frame) : 0.100
Stream size : 3.50 GiB (91%)
Language : French
Default : Yes
Forced : No
Color range : Limited
Color primaries : BT.709
Transfer characteristics : BT.709
Matrix coefficients : BT.709
Audio
ID : 2
Format : AC-3
Format/Info : Audio Coding 3
Format settings, Endianness : Big
Codec ID : A_AC3
Duration : 1 h 44 min
Bit rate mode : Constant
Bit rate : 384 kb/s
Channel(s) : 6 channels
Channel positions : Front: L C R, Side: L R, LFE
Sampling rate : 48.0 kHz
Frame rate : 31.250 FPS (1536 SPF)
Bit depth : 16 bits
Compression mode : Lossy
Stream size : 288 MiB (7%)
Title : iTunes
Language : Russian
Service kind : Complete Main
Default : Yes
Forced : No
Menu
00:00:00.000 : en:Глава 1
00:05:50.791 : en:Глава 2
00:12:59.124 : en:Глава 3
00:20:08.749 : en:Глава 4
00:28:19.540 : en:Глава 5
00:35:42.706 : en:Глава 6
00:42:08.581 : en:Глава 7
00:48:10.872 : en:Глава 8
00:54:51.747 : en:Глава 9
01:01:26.288 : en:Глава 10
01:07:15.204 : en:Глава 11
01:13:46.162 : en:Глава 12
01:20:06.287 : en:Глава 13
01:25:36.620 : en:Глава 14
01:32:10.411 : en:Глава 15

[Цитировать]



Показать сообщения:    

Текущее время: 28-Янв 11:09

Часовой пояс: UTC + 6


Вы не можете начинать темы
Вы не можете отвечать на сообщения
Вы не можете редактировать свои сообщения
Вы не можете удалять свои сообщения
Вы не можете голосовать в опросах
Вы не можете прикреплять файлы к сообщениям
Вы не можете скачивать файлы

!ВНИМАНИЕ!
Сайт не предоставляет электронные версии произведений, а занимается лишь коллекционированием и каталогизацией ссылок, присылаемых и публикуемых на форуме нашими читателями. Если вы являетесь правообладателем какого-либо представленного материала и не желаете, чтобы ссылка на него находилась в нашем каталоге, свяжитесь с нами, и мы незамедлительно удалим ее. Файлы для обмена на трекере предоставлены пользователями сайта, и администрация не несет ответственности за их содержание. Просьба не заливать файлы, защищенные авторскими правами, а также файлы нелегального содержания!