***Уважаемые пользователи и гости !!! Сайт переехал на новый домен Torrents-club.info. Просьба изменить ваши закладки! ***
 
[ Сегодня идет свободное скачивание без начисления Download ]


Статистика раздачи
Скачал: [ 2 ]
 
   
 
 
 
 
Свет моей жизни / Light of My Life
Информация о фильме
Название: Свет моей жизни
Оригинальное название: Light of My Life
Год выхода: 2019
Жанр: Драма, фантастика
Режиссер: Кейси Аффлек
В ролях: Кейси Аффлек, Анна Пнёвски, Том Бауэр, Элизабет Мосс, Хротгар Мэтьюз, Тимоти Уэббер, Монк Серрелл Фрид, Джесси Джеймс Пирс, Томми Кларк, Ллойд Каннингэм

О фильме: Восемь лет назад человечество поразил неизвестный вирус, убивший практически всех женщин на Земле. Мужчина с 12-летней дочерью, у которой оказался иммунитет к заболеванию, путешествует по лесам Северной Америки, лишь при большой надобности приближаясь к городам. Отец всеми силами пытается оградить девочку от опасностей, подстерегающих путников на каждом шагу.
Страна: Black Bear Pictures, Sea Change Media
Студия: США
Продолжительность: 01:59:54
Перевод(ы):
#1: Дублированный | iTunes

#2: Профессиональный многоголосый | HDRezka Studio
Качество: BDRemux 1080p
Видео: MPEG-4 AVC, 1920x1080, 35.9 Mbit/s, 23.976 fps
Аудио #01: 48 kHz, AC3, 5.1, 384 Kbps | iTunes | RUS |
Аудио #02: 48 kHz, AC3, 2.0, 192 Kbps | HDRezka Studio | RUS |
Аудио #03: 48 kHz, DTS-HD MA, 5.1, 3257 Kbps | Оригинал | ENG |
Субтитры: Русские (Full), английские

Скриншоты:

MI

General
Unique ID : 26822159076438193560860842230911579227 (0x142DC28B063AE5602F6EED7DCC83B45B)
Complete name : D:Video111Light.of.My.Life.2019.BDREMUX.1080p.seleZen.mkv
Format : Matroska
Format version : Version 4
File size : 33.3 GiB
Duration : 1 h 59 min
Overall bit rate mode : Variable
Overall bit rate : 39.7 Mb/s
Movie name : Light of My Life 2019 from селезень
Encoded date : UTC 2019-10-06 05:26:11
Writing application : mkvmerge v22.0.0 ('At The End Of The World') 64-bit
Writing library : libebml v1.3.5 + libmatroska v1.4.8
Video
ID : 1
Format : AVC
Format/Info : Advanced Video Codec
Format profile : High@L4.1
Format settings : CABAC / 4 Ref Frames
Format settings, CABAC : Yes
Format settings, Reference : 4 frames
Format settings, GOP : M=3, N=12
Codec ID : V_MPEG4/ISO/AVC
Duration : 1 h 59 min
Bit rate mode : Variable
Bit rate : 35.9 Mb/s
Maximum bit rate : 40.0 Mb/s
Width : 1 920 pixels
Height : 1 080 pixels
Display aspect ratio : 16:9
Frame rate mode : Constant
Frame rate : 23.976 (24000/1001) FPS
Color space : YUV
Chroma subsampling : 4:2:0
Bit depth : 8 bits
Scan type : Progressive
Bits/(Pixel*Frame) : 0.721
Stream size : 30.0 GiB (90%)
Language : English
Default : Yes
Forced : No
Audio #1
ID : 2
Format : AC-3
Format/Info : Audio Coding 3
Commercial name : Dolby Digital
Codec ID : A_AC3
Duration : 1 h 59 min
Bit rate mode : Constant
Bit rate : 384 kb/s
Channel(s) : 6 channels
Channel layout : L R C LFE Ls Rs
Sampling rate : 48.0 kHz
Frame rate : 31.250 FPS (1536 SPF)
Bit depth : 16 bits
Compression mode : Lossy
Stream size : 329 MiB (1%)
Title : Dub [iTunes]
Language : Russian
Service kind : Complete Main
Default : Yes
Forced : Yes
Audio #2
ID : 3
Format : AC-3
Format/Info : Audio Coding 3
Commercial name : Dolby Digital
Codec ID : A_AC3
Duration : 1 h 59 min
Bit rate mode : Constant
Bit rate : 192 kb/s
Channel(s) : 2 channels
Channel layout : L R
Sampling rate : 48.0 kHz
Frame rate : 31.250 FPS (1536 SPF)
Bit depth : 16 bits
Compression mode : Lossy
Stream size : 165 MiB (0%)
Title : MVO [HDRezka Studio]
Language : Russian
Service kind : Complete Main
Default : No
Forced : No
Audio #3
ID : 4
Format : DTS XLL
Format/Info : Digital Theater Systems
Commercial name : DTS-HD Master Audio
Codec ID : A_DTS
Duration : 1 h 59 min
Bit rate mode : Variable
Bit rate : 3 257 kb/s
Channel(s) : 6 channels
Channel layout : C L R Ls Rs LFE
Sampling rate : 48.0 kHz
Frame rate : 93.750 FPS (512 SPF)
Bit depth : 24 bits
Compression mode : Lossless
Stream size : 2.73 GiB (8%)
Title : Original
Language : English
Default : No
Forced : No
Text #1
ID : 5
Format : UTF-8
Codec ID : S_TEXT/UTF8
Codec ID/Info : UTF-8 Plain Text
Duration : 1 h 55 min
Bit rate : 76 b/s
Count of elements : 1323
Stream size : 64.7 KiB (0%)
Title : Full [FOCS]
Language : Russian
Default : No
Forced : No
Text #2
ID : 6
Format : UTF-8
Codec ID : S_TEXT/UTF8
Codec ID/Info : UTF-8 Plain Text
Duration : 1 h 54 min
Bit rate : 49 b/s
Count of elements : 1254
Stream size : 41.2 KiB (0%)
Title : Full
Language : English
Default : No
Forced : No
Text #3
ID : 7
Format : UTF-8
Codec ID : S_TEXT/UTF8
Codec ID/Info : UTF-8 Plain Text
Duration : 1 h 54 min
Bit rate : 53 b/s
Count of elements : 1376
Stream size : 44.7 KiB (0%)
Title : SDH
Language : English
Default : No
Forced : No
Menu
00:00:00.000 : en:00:00:00.000
00:12:13.107 : en:00:12:13.107
00:18:44.040 : en:00:18:44.040
00:26:57.115 : en:00:26:57.115
00:35:30.879 : en:00:35:30.879
00:43:29.982 : en:00:43:29.982
00:48:57.560 : en:00:48:57.560
00:58:51.862 : en:00:58:51.862
01:09:07.435 : en:01:09:07.435
01:15:28.733 : en:01:15:28.733
01:21:34.306 : en:01:21:34.306
01:26:47.702 : en:01:26:47.702
01:32:53.985 : en:01:32:53.985
01:38:16.349 : en:01:38:16.349
01:47:58.847 : en:01:47:58.847
01:55:18.745 : en:01:55:18.745

[Цитировать]



Показать сообщения:    

Текущее время: 25-Янв 21:31

Часовой пояс: UTC + 6


Вы не можете начинать темы
Вы не можете отвечать на сообщения
Вы не можете редактировать свои сообщения
Вы не можете удалять свои сообщения
Вы не можете голосовать в опросах
Вы не можете прикреплять файлы к сообщениям
Вы не можете скачивать файлы

!ВНИМАНИЕ!
Сайт не предоставляет электронные версии произведений, а занимается лишь коллекционированием и каталогизацией ссылок, присылаемых и публикуемых на форуме нашими читателями. Если вы являетесь правообладателем какого-либо представленного материала и не желаете, чтобы ссылка на него находилась в нашем каталоге, свяжитесь с нами, и мы незамедлительно удалим ее. Файлы для обмена на трекере предоставлены пользователями сайта, и администрация не несет ответственности за их содержание. Просьба не заливать файлы, защищенные авторскими правами, а также файлы нелегального содержания!