***Уважаемые пользователи и гости !!! Сайт переехал на новый домен Torrents-club.info. Просьба изменить ваши закладки! ***
 
[ Сегодня идет свободное скачивание без начисления Download ]


Статистика раздачи
Скачал: [ 1 ]
 
   
 
 
 
 
Чем заняться мертвецу в Денвере / Things to Do in Denver When You're Dead Информация о фильме
Название: Чем заняться мертвецу в Денвере
Оригинальное название: Things to Do in Denver When You're Dead
Год выхода: 1995
Жанр: Драма, криминал
Режиссер: Гэри Фледер
В ролях: Энди Гарсиа, Кристофер Уокен, Габриэлль Анвар, Стив Бушеми, Билл Коббс, Кристофер Ллойд, Джек Уорден, Уильям Форсайт, Трит Уильямс, Билл Нанн, Маршалл Белл, Файруза Балк, Майкл Николози, Гленн Пламмер...
О фильме:
Это история о Джимми-Святом, совершившем «кадровую» ошибку при подборе людей для пустякового дела. Могущественный и крайне неприятный босс преступного мира, парализованный от шеи и ниже, попросил занявшегося легальным бизнесом старого друга припугнуть парня девчонки, в которую одержимо влюблен его придурковатый сын, а отобранные Джимми для дела болваны вместо этого убили обоих. Разъяренный Уокен приказывает убить всех, кроме Джимми, дав другу 48 часов, чтобы исчезнуть. Но Джимми не может бросить друзей, да и у самого только что завязался роман с очаровательной юной красавицей…

Выпущено: США, Miramax Films, Woods Entertainment
Продолжительность: 01:55:34
Перевод: Профессиональный (многоголосый, закадровый) Премьер видео
Субтитры: Русские, английские
Файл
Формат: Matroska
Качество: HDRip-AVC
Видео: 1008x546 at 23.976 fps, x264, ~2253 kbps, 0.171 bpp
Аудио: AC3, 6 ch, ~448 kbps - | Русский | -
Формат субтитров: softsub (SRT)

M/I

x264 [info]: frame I:1109 Avg QP:14.59 size: 59993
x264 [info]: frame P:33907 Avg QP:17.55 size: 23909
x264 [info]: frame B:131245 Avg QP:19.84 size: 8195
x264 [info]: consecutive B-frames: 2.1% 2.6% 6.2% 11.5% 15.4% 47.0% 6.2% 1.6% 3.1% 1.7% 1.5% 1.1% 0.1%
General
Format : Matroska
Format version : Version 2
File size : 2.18 GiB
Duration : 1 h 55 min
Overall bit rate : 2 703 kb/s
Movie name : Чем заняться мертвецу в Денвере.(1995).HDRip-AVC.[-=DoMiNo=-]
Encoded date : UTC 2019-12-01 19:48:44
Writing application : mkvmerge v7.8.0 ('River Man') 32bit built on Apr 3 2015 12:11:22
Writing library : libebml v1.3.1 + libmatroska v1.4.2
Attachments : poster.png / poster 2.jpg
Video
ID : 1
Format : AVC
Format/Info : Advanced Video Codec
Format profile : High@L4.1
Format settings : CABAC / 12 Ref Frames
Format settings, CABAC : Yes
Format settings, Reference : 12 frames
Codec ID : V_MPEG4/ISO/AVC
Duration : 1 h 55 min
Bit rate : 2 253 kb/s
Width : 1 008 pixels
Height : 546 pixels
Display aspect ratio : 1.85:1
Frame rate mode : Constant
Frame rate : 23.976 (24000/1001) FPS
Color space : YUV
Chroma subsampling : 4:2:0
Bit depth : 8 bits
Scan type : Progressive
Bits/(Pixel*Frame) : 0.171
Stream size : 1.78 GiB (81%)
Title : RIP_BY_-=DoMiNo=-
Writing library : x264 core 152 r2851kMod ba24899
Encoding settings : cabac=1 / ref=12 / deblock=1:-2:-2 / analyse=0x3:0x133 / me=umh / subme=11 / psy=1 / fade_compensate=0.00 / psy_rd=1.10:0.00 / mixed_ref=1 / me_range=32 / chroma_me=1 / trellis=2 / 8x8dct=1 / cqm=0 / deadzone=21,11 / fast_pskip=0 / chroma_qp_offset=-2 / threads=6 / lookahead_threads=1 / sliced_threads=0 / nr=0 / decimate=0 / interlaced=0 / bluray_compat=0 / constrained_intra=0 / bframes=12 / b_pyramid=2 / b_adapt=2 / b_bias=0 / direct=3 / weightb=1 / open_gop=0 / weightp=2 / keyint=240 / keyint_min=24 / scenecut=40 / intra_refresh=0 / rc=2pass / mbtree=0 / bitrate=2253 / ratetol=1.0 / qcomp=0.70 / qpmin=0 / qpmax=39 / qpstep=4 / cplxblur=20.0 / qblur=0.5 / ip_ratio=1.20 / pb_ratio=1.30 / aq=2:1.00
Language : English
Default : Yes
Forced : No
Color range : Limited
Color primaries : BT.709
Transfer characteristics : BT.709
Matrix coefficients : BT.709
Audio
ID : 2
Format : AC-3
Format/Info : Audio Coding 3
Commercial name : Dolby Digital
Codec ID : A_AC3
Duration : 1 h 55 min
Bit rate mode : Constant
Bit rate : 448 kb/s
Channel(s) : 6 channels
Channel layout : L R C LFE Ls Rs
Sampling rate : 48.0 kHz
Frame rate : 31.250 FPS (1536 SPF)
Compression mode : Lossy
Stream size : 370 MiB (17%)
Title : Многоголосый, закадровый, Премьер Видео фильм DVD
Language : Russian
Service kind : Complete Main
Default : Yes
Forced : No
Text #1
ID : 3
Format : UTF-8
Codec ID : S_TEXT/UTF8
Codec ID/Info : UTF-8 Plain Text
Language : Russian
Default : No
Forced : No
Text #2
ID : 4
Format : UTF-8
Codec ID : S_TEXT/UTF8
Codec ID/Info : UTF-8 Plain Text
Language : English
Default : No
Forced : No
Menu
00:00:00.000 : en:Chapter 1
00:12:07.727 : en:Chapter 2
00:19:07.312 : en:Chapter 3
00:30:46.878 : en:Chapter 4
00:35:26.457 : en:Chapter 5
00:46:11.769 : en:Chapter 6
00:54:36.806 : en:Chapter 7
01:02:54.070 : en:Chapter 8
01:10:52.348 : en:Chapter 9
01:21:19.307 : en:Chapter 10
01:31:03.090 : en:Chapter 11
01:41:36.690 : en:Chapter 12

Скриншоты

[Цитировать]



Показать сообщения:    

Текущее время: 22-Фев 21:54

Часовой пояс: UTC + 6


Вы не можете начинать темы
Вы не можете отвечать на сообщения
Вы не можете редактировать свои сообщения
Вы не можете удалять свои сообщения
Вы не можете голосовать в опросах
Вы не можете прикреплять файлы к сообщениям
Вы не можете скачивать файлы

!ВНИМАНИЕ!
Сайт не предоставляет электронные версии произведений, а занимается лишь коллекционированием и каталогизацией ссылок, присылаемых и публикуемых на форуме нашими читателями. Если вы являетесь правообладателем какого-либо представленного материала и не желаете, чтобы ссылка на него находилась в нашем каталоге, свяжитесь с нами, и мы незамедлительно удалим ее. Файлы для обмена на трекере предоставлены пользователями сайта, и администрация не несет ответственности за их содержание. Просьба не заливать файлы, защищенные авторскими правами, а также файлы нелегального содержания!