***Уважаемые пользователи и гости !!! Сайт переехал на новый домен Torrents-club.info. Просьба изменить ваши закладки! ***
 
[ Сегодня идет свободное скачивание без начисления Download ]


Статистика раздачи
Нет
 
   
 
 
 
 
Эверест / Abominable (2019) [HEVC, HDR, UHD, 4K / BDRip] (2160p) Год выпуска: 2019
Жанр: Мультфильм, фэнтези, комедия, приключения, семейный, полнометражный
Выпущено: Китай, США, DreamWorks Animation, Pearl Studio
Режиссер: Джилл Калтон, Тодд Вилдерман
Продолжительность: 01:37:13
Перевод: Дублированный
Субтитры: Русские, английские, украинские
возраст 6+

В ролях:
Хлоя Беннет, Альберт Цай, Тензинг Норгай Трэйнор, Джозеф Иццо, Эдди Иззард, Сара Полсон, Цай Чинь, Мишель Вонг, Рич Дитль, Джеймс Хонг

О фильме:
Путешествие на самую высокую точку мира? Что может быть круче! Так решает Лу, когда случайно находит огромное, но очень милое чудовище посреди шумного мегаполиса. Пусть их преследуют ученые из сверхсекретной лаборатории, зато её новый друг умеет смешить и творить чудеса. Лу уверена, что поможет дружелюбному йети вернуться домой - на Эверест.
Эверест | Abominable (2019) | Трейлер (рус.)
Техданные
Качество: BDRip (2160p)
Видео: HEVC, 6102 Кбит/с, 3840x2076, 23.976 Кадр/с, 10 Бит
Аудио: Русский (AC3, 6 ch, 640 Кбит/с), украинский (AC3, 2 ch, 192 Кбит/с), английский (TrueHD, 8 ch, 4374 Кбит/с), (AC3, 6 ch, 640 Кбит/с)

Релиз

Мастер 5
Формат: Main 10@L5.1@High_x265_HDR10
Цветовой праймериз: BT.2020
Характеристики передачи: PQ
Матричные коэффициенты: BT.2020
Освоение основных цветов дисплея: Дисплей P3
Освоение яркости дисплея: min: min: 0.0050 cd/m2, max: 1000 cd/m2
Аудио:
#1 - Русский / AC3 / 48 KHz / 5.1 ch / 640 Kbps (Дубляж - Лицензия)
#2 - Украинский / AC3 / 48 KHz / 2 ch / 192 Kbps (Дубляж)
#3 - Английский / Dolby TrueHD / 48 KHz / 7.1 ch / 4374 Kbps (Original - BD US)
#4 - Английский / AC3 / 48 KHz / 5.1 ch / 640 Kbps (Original - BD 3US)
Субтитры:
#1 - Русские Форсированные
#2 - Русские Полные
#3 - Украинские Форсированные
#4 - English Full
#5 - English SDH (BD US)

MediaInfo:

Общее
Уникальный идентификатор                 : 226311638837008053851793669791569480492 (0xAA4209446673E3C085FEA14604010B2C)
Полное имя                               : G:\Abominable.2019.2160p.UHD.BDRip.x265.10bit.HDR.Master5.mkv
Формат                                   : Matroska
Версия формата                           : Version 4
Размер файла                             : 8,16 Гбайт
Продолжительность                        : 1 ч. 37 м.
Режим общего битрейта                    : Переменный
Общий поток                              : 12,0 Мбит/сек
Название фильма                          : Abominable.2019.2160p.UHD.BDRip.x265.10bit.HDR.Master5
Дата кодирования                         : UTC 2020-02-13 18:34:39
Программа кодирования                    : mkvmerge v7.9.0 ('Birds') 64bit
Библиотека кодирования                   : libebml v1.3.1 + libmatroska v1.4.2
Обложка                                  : Yes
Attachments                              : small_cover.jpg / small_cover_land.jpg / cover.jpg / cover_land.jpg
Видео
Идентификатор                            : 1
Формат                                   : HEVC
Формат/Информация                        : High Efficiency Video Coding
Коммерческое название                    : HDR10
Профиль формата                          : Main 10@L5.1@High
Идентификатор кодека                     : V_MPEGH/ISO/HEVC
Продолжительность                        : 1 ч. 37 м.
Битрейт                                  : 6102 Кбит/сек
Ширина                                   : 3840 пикселей
Высота                                   : 2076 пикселей
Соотношение сторон                       : 1,85:1
Режим частоты кадров                     : Постоянный
Частота кадров                           : 23,976 (24000/1001) кадра/сек
Цветовое пространство                    : YUV
Субдискретизация насыщенности            : 4:2:0 (Type 2)
Битовая глубина                          : 10 бит
Бит/(Пиксели*Кадры)                      : 0.032
Размер потока                            : 4,14 Гбайт (51%)
Заголовок                                : Abominable.2019.2160p.UHD.BDRip.x265.10bit.HDR.Master5
Библиотека кодирования                   : x265 3.0_Au+10-74a8672ea4f7:[Windows][GCC 8.2.1][64 bit] 10bit
Настройки программы                      : cpuid=1111039 / frame-threads=16 / numa-pools=32,32,32,32 / wpp / no-pmode / no-pme / no-psnr / no-ssim / log-level=2 / input-csp=1 / input-res=3840x2076 / interlace=0 / total-frames=0 / level-idc=51 / high-tier=1 / uhd-bd=0 / ref=3 / no-allow-non-conformance / repeat-headers / annexb / aud / hrd / info / hash=0 / no-temporal-layers / no-open-gop / min-keyint=1 / keyint=24 / gop-lookahead=0 / bframes=6 / b-adapt=2 / b-pyramid / bframe-bias=0 / rc-lookahead=25 / lookahead-slices=4 / scenecut=40 / radl=0 / no-splice / no-intra-refresh / ctu=64 / min-cu-size=8 / no-rect / no-amp / max-tu-size=32 / tu-inter-depth=1 / tu-intra-depth=1 / limit-tu=0 / rdoq-level=0 / dynamic-rd=0.00 / no-ssim-rd / signhide / no-tskip / nr-intra=0 / nr-inter=0 / no-constrained-intra / strong-intra-smoothing / max-merge=2 / limit-refs=3 / no-limit-modes / me=1 / subme=2 / merange=57 / temporal-mvp / weightp / no-weightb / no-analyze-src-pics / deblock=1:1 / no-sao / no-sao-non-deblock / rd=3 / no-early-skip / rskip / no-fast-intra / no-tskip-fast / no-cu-lossless / no-b-intra / no-splitrd-skip / rdpenalty=0 / psy-rd=0.40 / psy-rdoq=0.00 / no-rd-refine / no-lossless / cbqpoffs=0 / crqpoffs=0 / rc=crf / crf=14.0 / qcomp=0.60 / qpstep=4 / stats-write=0 / stats-read=0 / vbv-maxrate=160000 / vbv-bufsize=160000 / vbv-init=0.9 / crf-max=0.0 / crf-min=0.0 / ipratio=1.40 / pbratio=1.30 / aq-mode=1 / aq-strength=0.40 / cutree / zone-count=0 / no-strict-cbr / qg-size=32 / no-rc-grain / qpmax=69 / qpmin=0 / no-const-vbv / sar=1 / overscan=0 / videoformat=5 / range=0 / colorprim=9 / transfer=16 / colormatrix=9 / chromaloc=1 / chromaloc-top=2 / chromaloc-bottom=2 / display-window=0 / master-display=G(13250,34500)B(7500,3000)R(34000,16000)WP(15635,16450)L(10000000,50) / max-cll=1003,145 / min-luma=0 / max-luma=1023 / log2-max-poc-lsb=8 / vui-timing-info / vui-hrd-info / slices=1 / opt-qp-pps / opt-ref-list-length-pps / no-multi-pass-opt-rps / scenecut-bias=0.05 / no-opt-cu-delta-qp / no-aq-motion / hdr / hdr-opt / no-dhdr10-opt / no-idr-recovery-sei / analysis-reuse-level=5 / scale-factor=0 / refine-intra=0 / refine-inter=0 / refine-mv=0 / refine-ctu-distortion=0 / no-limit-sao / ctu-info=0 / no-lowpass-dct / refine-analysis-type=2004318071 / copy-pic=1 / max-ausize-factor=1.0 / no-dynamic-refine / no-single-sei / no-hevc-aq / no-svt / qp-adaptation-range=1.00
Язык                                     : English
Default                                  : Да
Forced                                   : Нет
Цветовой диапазон                        : Limited
Основные цвета                           : BT.2020
Характеристики трансфера                 : PQ
Коэффициенты матрицы                     : BT.2020 non-constant
MasteringDisplay_ColorPrimaries          : Display P3
MasteringDisplay_Luminance               : min: 0.0050 cd/m2, max: 1000 cd/m2
MaxCLL                                   : 1003 cd/m2
MaxFALL                                  : 145 cd/m2
Аудио #1
Идентификатор                            : 2
Формат                                   : AC-3
Формат/Информация                        : Audio Coding 3
Коммерческое название                    : Dolby Digital
Идентификатор кодека                     : A_AC3
Продолжительность                        : 1 ч. 37 м.
Вид битрейта                             : Постоянный
Битрейт                                  : 640 Кбит/сек
Каналы                                   : 6 каналов
Channel layout                           : L R C LFE Ls Rs
Частота                                  : 48,0 КГц
Частота кадров                           : 31,250 кадров/сек (1536 SPF)
Битовая глубина                          : 16 бит
Метод сжатия                             : С потерями
Размер потока                            : 445 Мбайт (5%)
Заголовок                                : Lic 3D EUR
Язык                                     : Russian
ServiceKind/String                       : Complete Main
Default                                  : Да
Forced                                   : Нет
Аудио #2
Идентификатор                            : 3
Формат                                   : AC-3
Формат/Информация                        : Audio Coding 3
Коммерческое название                    : Dolby Digital
Идентификатор кодека                     : A_AC3
Продолжительность                        : 1 ч. 37 м.
Вид битрейта                             : Постоянный
Битрейт                                  : 192 Кбит/сек
Каналы                                   : 2 канала
Channel layout                           : L R
Частота                                  : 48,0 КГц
Частота кадров                           : 31,250 кадров/сек (1536 SPF)
Битовая глубина                          : 16 бит
Метод сжатия                             : С потерями
Размер потока                            : 134 Мбайт (2%)
Заголовок                                : hurtom!
Язык                                     : Ukrainian
ServiceKind/String                       : Complete Main
Default                                  : Нет
Forced                                   : Нет
Аудио #3
Идентификатор                            : 4
Формат                                   : MLP FBA 16-ch
Формат/Информация                        : Meridian Lossless Packing FBA with 16-channel presentation
Коммерческое название                    : Dolby TrueHD with Dolby Atmos
Идентификатор кодека                     : A_TRUEHD
Продолжительность                        : 1 ч. 37 м.
Вид битрейта                             : Переменный
Битрейт                                  : 4374 Кбит/сек
Максимальный битрейт                     : 7389 Кбит/сек
Каналы                                   : 8 каналов
Channel layout                           : L R C LFE Ls Rs Lb Rb
Частота                                  : 48,0 КГц
Частота кадров                           : 1200,000 кадров/сек (40 SPF)
Метод сжатия                             : Без потерь
Размер потока                            : 2,97 Гбайт (36%)
Заголовок                                : Original
Язык                                     : English
Default                                  : Нет
Forced                                   : Нет
Number of dynamic objects                : 11
Bed channel count                        : 1 канал
Bed channel configuration                : LFE
Аудио #4
Идентификатор                            : 5
Формат                                   : AC-3
Формат/Информация                        : Audio Coding 3
Коммерческое название                    : Dolby Digital
Идентификатор кодека                     : A_AC3
Продолжительность                        : 1 ч. 37 м.
Вид битрейта                             : Постоянный
Битрейт                                  : 640 Кбит/сек
Каналы                                   : 6 каналов
Channel layout                           : L R C LFE Ls Rs
Частота                                  : 48,0 КГц
Частота кадров                           : 31,250 кадров/сек (1536 SPF)
Битовая глубина                          : 16 бит
Метод сжатия                             : С потерями
Размер потока                            : 445 Мбайт (5%)
Заголовок                                : Original
Язык                                     : English
ServiceKind/String                       : Complete Main
Default                                  : Нет
Forced                                   : Нет
Текст #1
Идентификатор                            : 6
Формат                                   : UTF-8
Идентификатор кодека                     : S_TEXT/UTF8
Идентификатор кодека/Информация          : UTF-8 Plain Text
Продолжительность                        : 1 ч. 23 м.
Битрейт                                  : 0 бит/сек
ElementCount                             : 9
Размер потока                            : 325 байт (0%)
Заголовок                                : Forced
Язык                                     : Russian
Default                                  : Да
Forced                                   : Нет
Текст #2
Идентификатор                            : 7
Формат                                   : UTF-8
Идентификатор кодека                     : S_TEXT/UTF8
Идентификатор кодека/Информация          : UTF-8 Plain Text
Продолжительность                        : 1 ч. 24 м.
Битрейт                                  : 0 бит/сек
ElementCount                             : 9
Размер потока                            : 291 байт (0%)
Заголовок                                : Форсированные
Язык                                     : Ukrainian
Default                                  : Нет
Forced                                   : Нет
Текст #3
Идентификатор                            : 8
Формат                                   : UTF-8
Идентификатор кодека                     : S_TEXT/UTF8
Идентификатор кодека/Информация          : UTF-8 Plain Text
Продолжительность                        : 1 ч. 25 м.
Битрейт                                  : 67 бит/сек
ElementCount                             : 998
Размер потока                            : 42,3 Кбайт (0%)
Заголовок                                : Full
Язык                                     : Russian
Default                                  : Нет
Forced                                   : Нет
Текст #4
Идентификатор                            : 9
Формат                                   : UTF-8
Идентификатор кодека                     : S_TEXT/UTF8
Идентификатор кодека/Информация          : UTF-8 Plain Text
Продолжительность                        : 1 ч. 35 м.
Битрейт                                  : 53 бит/сек
ElementCount                             : 1549
Размер потока                            : 37,8 Кбайт (0%)
Заголовок                                : SDH (BD 3D US)
Язык                                     : English
Default                                  : Нет
Forced                                   : Нет
Текст #5
Идентификатор                            : 10
Формат                                   : UTF-8
Идентификатор кодека                     : S_TEXT/UTF8
Идентификатор кодека/Информация          : UTF-8 Plain Text
Продолжительность                        : 1 ч. 25 м.
Битрейт                                  : 46 бит/сек
ElementCount                             : 1175
Размер потока                            : 29,0 Кбайт (0%)
Заголовок                                : Full
Язык                                     : English
Default                                  : Нет
Forced                                   : Нет
Текст #6
Идентификатор                            : 11
Формат                                   : UTF-8
Идентификатор кодека                     : S_TEXT/UTF8
Идентификатор кодека/Информация          : UTF-8 Plain Text
Продолжительность                        : 1 ч. 25 м.
Битрейт                                  : 46 бит/сек
ElementCount                             : 1175
Размер потока                            : 29,0 Кбайт (0%)
Заголовок                                : Full
Язык                                     : English
Default                                  : Нет
Forced                                   : Нет
Меню
00:00:00.000                             : :Chapter 01
00:04:11.835                             : :Chapter 02
00:09:10.884                             : :Chapter 03
00:13:42.238                             : :Chapter 04
00:16:13.598                             : :Chapter 05
00:21:34.752                             : :Chapter 06
00:25:02.459                             : :Chapter 07
00:29:30.435                             : :Chapter 08
00:33:57.452                             : :Chapter 09
00:36:43.785                             : :Chapter 10
00:41:53.010                             : :Chapter 11
00:46:30.705                             : :Chapter 12
00:50:42.331                             : :Chapter 13
00:56:31.555                             : :Chapter 14
01:01:40.530                             : :Chapter 15
01:06:33.198                             : :Chapter 16
01:11:44.425                             : :Chapter 17
01:15:26.355                             : :Chapter 18
01:20:41.545                             : :Chapter 19
01:26:44.408                             : :Chapter 20

Скриншоты

[Цитировать]

Релиз обновлён - заменена на лицензию

[Цитировать]



Показать сообщения:    

Текущее время: 17-Фев 12:02

Часовой пояс: UTC + 6


Вы не можете начинать темы
Вы не можете отвечать на сообщения
Вы не можете редактировать свои сообщения
Вы не можете удалять свои сообщения
Вы не можете голосовать в опросах
Вы не можете прикреплять файлы к сообщениям
Вы не можете скачивать файлы

!ВНИМАНИЕ!
Сайт не предоставляет электронные версии произведений, а занимается лишь коллекционированием и каталогизацией ссылок, присылаемых и публикуемых на форуме нашими читателями. Если вы являетесь правообладателем какого-либо представленного материала и не желаете, чтобы ссылка на него находилась в нашем каталоге, свяжитесь с нами, и мы незамедлительно удалим ее. Файлы для обмена на трекере предоставлены пользователями сайта, и администрация не несет ответственности за их содержание. Просьба не заливать файлы, защищенные авторскими правами, а также файлы нелегального содержания!