***Уважаемые пользователи и гости !!! Сайт переехал на новый домен Torrents-club.info. Просьба изменить ваши закладки! ***
 
[ Сегодня идет свободное скачивание без начисления Download ]


Статистика раздачи
Нет
 
   
 
 
 
 
Джеймс Бонд 007: Казино Рояль / James Bond 007: Casino Royale (2006) [4K, HEVC, HDR, Dolby Vision TV DL / Blu-Ray Remux] (2160p)
Год выпуска
: 2006
Жанр: Боевик, триллер, приключения, экранизация
Выпущено: Великобритания, Чехия, США, Германия, Багамы, Columbia Pictures
Режиссер: Мартин Кэмпбелл
Продолжительность: 02:24:33
Перевод: Дублированный
Субтитры: Русские (форс.)
возраст 6+

В ролях:
Дэниэл Крэйг, Ева Грин, Мадс Миккельсен, Джуди Денч, Джеффри Райт, Джанкарло Джаннини, Катерина Мурино, Симон Абкарян, Исаак Де Банколе, Еспер Кристенсен, Ивана Миличевич, Тобайас Мензис, Клаудио Сантамария, Себастьен Фука, Малкольм Синклер, Рихард Заммель, Людгер Пистор, Джозеф Миллсон, Дауд Шах, Клеменс Шик, Эммануель Авена, Том Чэдбон, Эд, Урбано Барберини, Цай Чинь, Чарли Леви

О фильме:
Фильм по роману Яна Флеминга - ”Казино ”Рояль” - своеобразное возвращение к истокам Бондианы. Он снят по первой книге Яна Флеминга - о Джеймсе Бонде, хотя сюжет и претерпел в киноварианте ряд непринципиальных изменений. Именно в этом фильме начинающий секретный агент, брутальный и серьёзный парень из британской разведки, становится непревзойдённым суперагентом 007. Именно здесь ему предстоит не только разделаться в нелёгкой борьбе, как с оружием в руках, так и за карточным столом (по долгу службы!), с подпольным банкиром Ле Шиффром, отмывающим деньги сразу нескольких могучих террористических организаций, но и запомнить раз и навсегда на будущее: если роман перерастает в истинную любовь, то боль, которую она способна причинить, тоже будет абсолютно настоящей... Дебют Дэниела Крэйга в роли агента 007, вопреки первоначальным сомнениям многих, оказавшийся вполне успешным.
Казино Рояль (2006) — русский трейлер
Техданные
Качество: Blu-Ray Remux (2160p)
Видео: HEVC, 41.9 Mбит/с, 3840x2160
Аудио: Русский (AC3, 6 ch, 448 Кбит/с)
Релиз: селезень
Озвучивание: Дублированное [Лицензия]
Субтитры: Русские (форсированные)

MediaInfo:

General
Complete name               : F:\Films\Casino.Royale.2006.BDREMUX.2160p.HDR.DV.seleZen\Casino.Royale.2006.BDREMUX.2160p.HDR.DV.seleZen.mp4
Format                      : MPEG-4
Format profile              : Base Media / Version 2
Codec ID                    : mp42 (mp42/dby1/isom)
File size                   : 42.8 GiB
Duration                    : 2 h 24 min
Overall bit rate            : 42.4 Mb/s
Encoded date                : UTC 2019-10-21 14:57:11
Tagged date                 : UTC 2019-10-21 14:57:11
Video #1
ID                          : 1
Format                      : HEVC
Format/Info                 : High Efficiency Video Coding
Format profile              : Main 10@L5.1@High
HDR format                  : SMPTE ST 2086, HDR10 compatible
Codec ID                    : hev1
Codec ID/Info               : High Efficiency Video Coding
Duration                    : 2 h 24 min
Bit rate                    : 41.9 Mb/s
Width                       : 3 840 pixels
Height                      : 2 160 pixels
Display aspect ratio        : 16:9
Frame rate mode             : Constant
Frame rate                  : 23.976 (24000/1001) FPS
Color space                 : YUV
Chroma subsampling          : 4:2:0 (Type 2)
Bit depth                   : 10 bits
Bits/(Pixel*Frame)          : 0.211
Stream size                 : 42.3 GiB (99%)
Default                     : No
Encoded date                : UTC 2019-10-21 14:57:11
Tagged date                 : UTC 2019-10-21 14:57:11
Color range                 : Limited
Color primaries             : BT.2020
Transfer characteristics    : PQ
Matrix coefficients         : BT.2020 non-constant
Mastering display color pri : Display P3
Mastering display luminance : min: 0.0001 cd/m2, max: 1000 cd/m2
Codec configuration box     : hvcC
Video #2
ID                          : 2
Format                      : HEVC
Format/Info                 : High Efficiency Video Coding
Format profile              : Main 10@L5.1@High
HDR format                  : Dolby Vision, Version 1.0, dvhe.07.06, EL+RPU / SMPTE ST 2086, HDR10 compatible
Codec ID                    : dvhe
Codec ID/Info               : High Efficiency Video Coding with Dolby Vision
Duration                    : 2 h 24 min
Bit rate                    : 64.7 kb/s
Width                       : 1 920 pixels
Height                      : 1 080 pixels
Display aspect ratio        : 16:9
Frame rate mode             : Constant
Frame rate                  : 23.976 (24000/1001) FPS
Color space                 : YUV
Chroma subsampling          : 4:2:0 (Type 2)
Bit depth                   : 10 bits
Bits/(Pixel*Frame)          : 0.001
Stream size                 : 66.9 MiB (0%)
Default                     : No
Encoded date                : UTC 2019-10-21 14:57:11
Tagged date                 : UTC 2019-10-21 14:57:11
Color range                 : Limited
Color primaries             : BT.2020
Transfer characteristics    : PQ
Matrix coefficients         : BT.2020 non-constant
Mastering display color pri : Display P3
Mastering display luminance : min: 0.0001 cd/m2, max: 1000 cd/m2
Codec configuration box     : hvcC+dvcC
Audio
ID                          : 3
Format                      : AC-3
Format/Info                 : Audio Coding 3
Commercial name             : Dolby Digital
Codec ID                    : ac-3
Duration                    : 2 h 24 min
Bit rate mode               : Constant
Bit rate                    : 448 kb/s
Channel(s)                  : 6 channels
Channel layout              : L R C LFE Ls Rs
Sampling rate               : 48.0 kHz
Frame rate                  : 31.250 FPS (1536 SPF)
Bit depth                   : 16 bits
Compression mode            : Lossy
Stream size                 : 463 MiB (1%)
Language                    : Russian
Service kind                : Complete Main
Default                     : No
Encoded date                : UTC 2019-10-21 14:57:11
Tagged date                 : UTC 2019-10-21 14:57:11

RAW Paste Data

General
Complete name               : F:\Films\Casino.Royale.2006.BDREMUX.2160p.HDR.DV.seleZen\Casino.Royale.2006.BDREMUX.2160p.HDR.DV.seleZen.mp4
Format                      : MPEG-4
Format profile              : Base Media / Version 2
Codec ID                    : mp42 (mp42/dby1/isom)
File size                   : 42.8 GiB
Duration                    : 2 h 24 min
Overall bit rate            : 42.4 Mb/s
Encoded date                : UTC 2019-10-21 14:57:11
Tagged date                 : UTC 2019-10-21 14:57:11
Video #1
ID                          : 1
Format                      : HEVC
Format/Info                 : High Efficiency Video Coding
Format profile              : Main 10@L5.1@High
HDR format                  : SMPTE ST 2086, HDR10 compatible
Codec ID                    : hev1
Codec ID/Info               : High Efficiency Video Coding
Duration                    : 2 h 24 min
Bit rate                    : 41.9 Mb/s
Width                       : 3 840 pixels
Height                      : 2 160 pixels
Display aspect ratio        : 16:9
Frame rate mode             : Constant
Frame rate                  : 23.976 (24000/1001) FPS
Color space                 : YUV
Chroma subsampling          : 4:2:0 (Type 2)
Bit depth                   : 10 bits
Bits/(Pixel*Frame)          : 0.211
Stream size                 : 42.3 GiB (99%)
Default                     : No
Encoded date                : UTC 2019-10-21 14:57:11
Tagged date                 : UTC 2019-10-21 14:57:11
Color range                 : Limited
Color primaries             : BT.2020
Transfer characteristics    : PQ
Matrix coefficients         : BT.2020 non-constant
Mastering display color pri : Display P3
Mastering display luminance : min: 0.0001 cd/m2, max: 1000 cd/m2
Codec configuration box     : hvcC
Video #2
ID                          : 2
Format                      : HEVC
Format/Info                 : High Efficiency Video Coding
Format profile              : Main 10@L5.1@High
HDR format                  : Dolby Vision, Version 1.0, dvhe.07.06, EL+RPU / SMPTE ST 2086, HDR10 compatible
Codec ID                    : dvhe
Codec ID/Info               : High Efficiency Video Coding with Dolby Vision
Duration                    : 2 h 24 min
Bit rate                    : 64.7 kb/s
Width                       : 1 920 pixels
Height                      : 1 080 pixels
Display aspect ratio        : 16:9
Frame rate mode             : Constant
Frame rate                  : 23.976 (24000/1001) FPS
Color space                 : YUV
Chroma subsampling          : 4:2:0 (Type 2)
Bit depth                   : 10 bits
Bits/(Pixel*Frame)          : 0.001
Stream size                 : 66.9 MiB (0%)
Default                     : No
Encoded date                : UTC 2019-10-21 14:57:11
Tagged date                 : UTC 2019-10-21 14:57:11
Color range                 : Limited
Color primaries             : BT.2020
Transfer characteristics    : PQ
Matrix coefficients         : BT.2020 non-constant
Mastering display color pri : Display P3
Mastering display luminance : min: 0.0001 cd/m2, max: 1000 cd/m2
Codec configuration box     : hvcC+dvcC
Audio
ID                          : 3
Format                      : AC-3
Format/Info                 : Audio Coding 3
Commercial name             : Dolby Digital
Codec ID                    : ac-3
Duration                    : 2 h 24 min
Bit rate mode               : Constant
Bit rate                    : 448 kb/s
Channel(s)                  : 6 channels
Channel layout              : L R C LFE Ls Rs
Sampling rate               : 48.0 kHz
Frame rate                  : 31.250 FPS (1536 SPF)
Bit depth                   : 16 bits
Compression mode            : Lossy
Stream size                 : 463 MiB (1%)
Language                    : Russian
Service kind                : Complete Main
Default                     : No
Encoded date                : UTC 2019-10-21 14:57:11
Tagged date                 : UTC 2019-10-21 14:57:11

Скриншоты

[Цитировать]



Показать сообщения:    

Текущее время: 22-Фев 21:29

Часовой пояс: UTC + 6


Вы не можете начинать темы
Вы не можете отвечать на сообщения
Вы не можете редактировать свои сообщения
Вы не можете удалять свои сообщения
Вы не можете голосовать в опросах
Вы не можете прикреплять файлы к сообщениям
Вы не можете скачивать файлы

!ВНИМАНИЕ!
Сайт не предоставляет электронные версии произведений, а занимается лишь коллекционированием и каталогизацией ссылок, присылаемых и публикуемых на форуме нашими читателями. Если вы являетесь правообладателем какого-либо представленного материала и не желаете, чтобы ссылка на него находилась в нашем каталоге, свяжитесь с нами, и мы незамедлительно удалим ее. Файлы для обмена на трекере предоставлены пользователями сайта, и администрация не несет ответственности за их содержание. Просьба не заливать файлы, защищенные авторскими правами, а также файлы нелегального содержания!