***Уважаемые пользователи и гости !!! Сайт переехал на новый домен Torrents-club.info. Просьба изменить ваши закладки! ***
 
[ Сегодня идет свободное скачивание без начисления Download ]


Статистика раздачи
Качаю: [ 1 ]
Скачал: [ 4 ]
 
   
 
 
 
 
Джокер / Joker (2019) [4K, HEVC, HDR / BDRip] (2160p) Год выпуска: 2019
Жанр: Триллер, драма, криминал
Выпущено: Канада, США, Warner Bros., Village Roadshow Pictures, DC Entertainment, DC Comics, 22 & Indiana Pictures
Режиссер: Тодд Филлипс
Продолжительность: 02:01:49
Перевод: Дублированный, профессиональный многоголосый, авторский
Субтитры: Русские, английские
возраст 18+

В ролях
: Хоакин Феникс, Роберт Де Ниро, Зази Битц, Джоли Чань, Марк Мэрон, Фрэнсис Конрой, Мэри Кейт Малат, Ши Уигхэм, Брайан Коллен, Бретт Каллен, Билл Кэмп, Гленн Флешлер, Ли Гилл, Джош Пэйс

О фильме:
Готэм, начало 1980-х годов. Комик Артур Флек живет с больной матерью, которая с детства учит его «ходить с улыбкой». Пытаясь нести в мир хорошее и дарить людям радость, Артур сталкивается с человеческой жестокостью и постепенно приходит к выводу, что этот мир получит от него не добрую улыбку, а ухмылку злодея Джокера.
Джокер — Русский трейлер (2019)
Техданные
Качество: BDRip (2160p)
Видео: HEVC, 14.5 Mбит/с, 3840x2080, 23.976 кадр/с, 10 бит
Аудио: Русский (AC3, 2 ch, 192 Кбит/с), (AC3, 6 ch, 448 Кбит/с), английский (DTS, 6 ch, 1510 Кбит/с)

Релиз

Формат: Main 10@L5.1@High_x265_HDR10
Цветовой праймериз: BT.2020
Характеристики передачи: PQ
Матричные коэффициенты: BT.2020
min: 0.0050 cd/m2, max: 4000 cd/m2
Русский: 48 kHz, AC3 Dolby Digital, 2/0 (L,R) ch, 192 kbps / Дублированный, Онлайн кинотеатр
Русский: 48 kHz, AC3 Dolby Digital, 2/0 (L,R) ch, 192 kbps / Многоголосый закадровый, HDRezka Studio
Русский: 48 kHz, AC3 Dolby Digital, 3/2 (L,C,R,l,r) + LFE ch, 448 kbps avg / Авторский, Михаил Чадов, без цензуры
Английский: 48 kHz / 24 bits, DTS, 3/2 (L,C,R,l,r) + LFE ch, 1510 kbps avg
Субтитры: Русские (Forced,Full), Английские (Full,SDH)

MediaInfo:

Общее
Unique ID : 64442891368355534285815851650381090005 (0x307B3FD9EB1C8CF80663E42521758CD5)
Complete name : C:Joker.2019.2160p.HDR.BDRip.mkv
Format : Matroska
Format version : Version 4
File size : 14,3 Гбайт
Duration : 2 ч. 1 м.
Overall bit rate : 16,8 Мбит/сек
Encoded date : UTC 2019-12-20 08:39:43
Writing application : mkvmerge v38.0.0 ('The Silent Type') 64-bit
Writing library : libebml v1.3.9 + libmatroska v1.5.2
Cover : Yes
Attachments : cover.jpg
Видео
ID : 1
Format : HEVC
Format/Info : High Efficiency Video Coding
Format profile : Main 10@L5.1@High
HDR format : SMPTE ST 2086, HDR10 compatible
Codec ID : V_MPEGH/ISO/HEVC
Duration : 2 ч. 1 м.
Bit rate : 14,5 Мбит/сек
Width : 3840 пикселей
Height : 2080 пикселей
Display aspect ratio : 1,85:1
Frame rate mode : Постоянный
Frame rate : 23,976 (24000/1001) кадра/сек
Color space : YUV
Chroma subsampling : 4:2:0 (Type 2)
Bit depth : 10 бит
Bits/(Pixel*Frame) : 0.076
Stream size : 12,3 Гбайт (86%)
Title : BDRip.2160p.HDR
Writing library : x265 3.2+8-7fc1f6ef2b96:[Windows][GCC 9.2.1][64 bit] 10bit
Encoding settings : cpuid=1111039 / frame-threads=4 / numa-pools=24 / wpp / no-pmode / no-pme / no-psnr / no-ssim / log-level=2 / input-csp=1 / input-res=3840x2080 / interlace=0 / total-frames=175243 / level-idc=51 / high-tier=1 / uhd-bd=0 / ref=4 / no-allow-non-conformance / repeat-headers / annexb / aud / hrd / info / hash=0 / no-temporal-layers / no-open-gop / min-keyint=1 / keyint=24 / gop-lookahead=0 / bframes=4 / b-adapt=2 / b-pyramid / bframe-bias=0 / rc-lookahead=25 / lookahead-slices=4 / scenecut=40 / radl=0 / no-splice / no-intra-refresh / ctu=64 / min-cu-size=8 / rect / no-amp / max-tu-size=32 / tu-inter-depth=1 / tu-intra-depth=1 / limit-tu=0 / rdoq-level=2 / dynamic-rd=0.00 / no-ssim-rd / signhide / no-tskip / nr-intra=0 / nr-inter=0 / no-constrained-intra / no-strong-intra-smoothing / max-merge=3 / limit-refs=3 / limit-modes / me=3 / subme=3 / merange=57 / temporal-mvp / no-frame-dup / no-hme / weightp / no-weightb / no-analyze-src-pics / deblock=-3:-3 / no-sao / no-sao-non-deblock / rd=4 / selective-sao=0 / no-early-skip / rskip / no-fast-intra / no-tskip-fast / no-cu-lossless / no-b-intra / no-splitrd-skip / rdpenalty=0 / psy-rd=2.00 / psy-rdoq=1.00 / no-rd-refine / no-lossless / cbqpoffs=0 / crqpoffs=0 / rc=crf / crf=17.0 / qcomp=0.60 / qpstep=4 / stats-write=0 / stats-read=0 / vbv-maxrate=160000 / vbv-bufsize=160000 / vbv-init=0.9 / crf-max=0.0 / crf-min=0.0 / ipratio=1.40 / pbratio=1.30 / aq-mode=2 / aq-strength=1.00 / cutree / zone-count=0 / no-strict-cbr / qg-size=32 / no-rc-grain / qpmax=69 / qpmin=0 / no-const-vbv / sar=1 / overscan=0 / videoformat=5 / range=0 / colorprim=9 / transfer=16 / colormatrix=9 / chromaloc=1 / chromaloc-top=2 / chromaloc-bottom=2 / display-window=0 / master-display=G(13250,34500)B(7500,3000)R(34000,16000)WP(15635,16450)L(40000000,50) / cll=992,120 / min-luma=0 / max-luma=1023 / log2-max-poc-lsb=8 / vui-timing-info / vui-hrd-info / slices=1 / no-opt-qp-pps / no-opt-ref-list-length-pps / no-multi-pass-opt-rps / scenecut-bias=0.05 / no-opt-cu-delta-qp / no-aq-motion / hdr / hdr-opt / no-dhdr10-opt / no-idr-recovery-sei / analysis-reuse-level=5 / scale-factor=0 / refine-intra=0 / refine-inter=0 / refine-mv=1 / refine-ctu-distortion=0 / no-limit-sao / ctu-info=0 / no-lowpass-dct / refine-analysis-type=0 / copy-pic=1 / max-ausize-factor=1.0 / no-dynamic-refine / no-single-sei / no-hevc-aq / no-svt / no-field / qp-adaptation-range=1.00
Default : Да
Forced : Нет
Color range : Limited
Color primaries : BT.2020
Transfer characteristics : PQ
Matrix coefficients : BT.2020 non-constant
Mastering display color primaries : Display P3
Mastering display luminance : min: 0.0050 cd/m2, max: 4000 cd/m2
Maximum Content Light Level : 992 cd/m2
Maximum Frame-Average Light Level : 120 cd/m2
Аудио #1
ID : 2
Format : AC-3
Format/Info : Audio Coding 3
Commercial name : Dolby Digital
Codec ID : A_AC3
Duration : 2 ч. 1 м.
Bit rate mode : Постоянный
Bit rate : 192 Кбит/сек
Channel(s) : 2 канала
Channel layout : L R
Sampling rate : 48,0 КГц
Frame rate : 31,250 кадров/сек (1536 SPF)
Compression mode : С потерями
Stream size : 167 Мбайт (1%)
Title : Дубляж, онлайн-кинотеатр
Language : Russian
Service kind : Complete Main
Default : Да
Forced : Нет
Аудио #2
ID : 3
Format : AC-3
Format/Info : Audio Coding 3
Commercial name : Dolby Digital
Codec ID : A_AC3
Duration : 2 ч. 1 м.
Bit rate mode : Постоянный
Bit rate : 192 Кбит/сек
Channel(s) : 2 канала
Channel layout : L R
Sampling rate : 48,0 КГц
Frame rate : 31,250 кадров/сек (1536 SPF)
Compression mode : С потерями
Stream size : 167 Мбайт (1%)
Title : Многоголосый закадровый, HDRezka Studio
Language : Russian
Service kind : Complete Main
Default : Нет
Forced : Нет
Аудио #3
ID : 4
Format : AC-3
Format/Info : Audio Coding 3
Commercial name : Dolby Digital
Codec ID : A_AC3
Duration : 2 ч. 1 м.
Bit rate mode : Постоянный
Bit rate : 448 Кбит/сек
Channel(s) : 6 каналов
Channel layout : L R C LFE Ls Rs
Sampling rate : 48,0 КГц
Frame rate : 31,250 кадров/сек (1536 SPF)
Compression mode : С потерями
Stream size : 390 Мбайт (3%)
Title : Одноголосый закадровый, Михаил Чадов / без цензуры
Language : Russian
Service kind : Complete Main
Default : Нет
Forced : Нет
Аудио #4
ID : 9
Format : DTS
Format/Info : Digital Theater Systems
Codec ID : A_DTS
Duration : 2 ч. 1 м.
Bit rate mode : Постоянный
Bit rate : 1510 Кбит/сек
Channel(s) : 6 каналов
Channel layout : C L R Ls Rs LFE
Sampling rate : 48,0 КГц
Frame rate : 93,750 кадра/сек (512 SPF)
Bit depth : 24 бит
Compression mode : С потерями
Stream size : 1,28 Гбайт (9%)
Language : English
Default : Нет
Forced : Нет
Текст #1
ID : 5
Format : UTF-8
Codec ID : S_TEXT/UTF8
Codec ID/Info : UTF-8 Plain Text
Duration : 1 ч. 54 м.
Bit rate : 8 бит/сек
Count of elements : 101
Stream size : 7,14 Кбайт (0%)
Title : Forced
Language : Russian
Default : Да
Forced : Нет
Текст #2
ID : 6
Format : UTF-8
Codec ID : S_TEXT/UTF8
Codec ID/Info : UTF-8 Plain Text
Duration : 1 ч. 55 м.
Bit rate : 79 бит/сек
Count of elements : 1221
Stream size : 67,1 Кбайт (0%)
Title : Full
Language : Russian
Default : Нет
Forced : Нет
Текст #3
ID : 7
Format : UTF-8
Codec ID : S_TEXT/UTF8
Codec ID/Info : UTF-8 Plain Text
Duration : 1 ч. 54 м.
Bit rate : 43 бит/сек
Count of elements : 1326
Stream size : 36,7 Кбайт (0%)
Title : Full
Language : English
Default : Нет
Forced : Нет
Текст #4
ID : 8
Format : UTF-8
Codec ID : S_TEXT/UTF8
Codec ID/Info : UTF-8 Plain Text
Duration : 1 ч. 58 м.
Bit rate : 55 бит/сек
Count of elements : 1735
Stream size : 47,9 Кбайт (0%)
Title : SDH
Language : English
Default : Нет
Forced : Нет
Меню
00:00:00.000 : :Chapter 01
00:10:28.795 : :Chapter 02
00:21:01.302 : :Chapter 03
00:28:44.973 : :Chapter 04
00:38:14.501 : :Chapter 05
00:46:21.570 : :Chapter 06
00:56:19.293 : :Chapter 07
01:04:41.169 : :Chapter 08
01:15:41.746 : :Chapter 09
01:26:16.046 : :Chapter 10
01:37:02.608 : :Chapter 11
01:45:50.386 : :Chapter 12
01:55:44.646 : :Chapter 13

Скриншоты

[Цитировать]



Показать сообщения:    

Текущее время: 06-Июн 09:38

Часовой пояс: UTC + 6


Вы не можете начинать темы
Вы не можете отвечать на сообщения
Вы не можете редактировать свои сообщения
Вы не можете удалять свои сообщения
Вы не можете голосовать в опросах
Вы не можете прикреплять файлы к сообщениям
Вы не можете скачивать файлы

!ВНИМАНИЕ!
Сайт не предоставляет электронные версии произведений, а занимается лишь коллекционированием и каталогизацией ссылок, присылаемых и публикуемых на форуме нашими читателями. Если вы являетесь правообладателем какого-либо представленного материала и не желаете, чтобы ссылка на него находилась в нашем каталоге, свяжитесь с нами, и мы незамедлительно удалим ее. Файлы для обмена на трекере предоставлены пользователями сайта, и администрация не несет ответственности за их содержание. Просьба не заливать файлы, защищенные авторскими правами, а также файлы нелегального содержания!