***Уважаемые пользователи и гости !!! Сайт переехал на новый домен Torrents-club.info. Просьба изменить ваши закладки! ***
 
[ Сегодня идет свободное скачивание без начисления Download ]


 
 
Рождественские каникулы / Christmas Vacation Информация о фильме
Название: Рождественские каникулы
Оригинальное название: Christmas Vacation
Год выхода: 1989
Жанр: Рождественская комедия
Режиссер: Джеримайя С. Чечик
В ролях:Чеви Чейз, Беверли Д`Анджело, Джульетт Льюис, Джонни Галецки, Джон Рэндольф, Дайан Лэдд, И.Г. Маршалл, Дорис Робертс, Рэнди Куэйд, Мириам Флинн, Cody Burger, Ellen Hamilton Latzen, Уильям Хикки, Mae Questel, Сэм МакМюррей, Николас Гест, Джулия Луис-Дрейфус, Николетт Скорсезе, Keith MacKechnie, Брайан Дойл-Мюррэй, Наталия Ногулич
О фильме: В доме Грисуолдов празднуют Рождество. Время, когда дарят подарки, звучат гимны, радостно мерцают огоньки рождественской елки… Но погодите-ка: эта елка вовсе не мерцает. Она вся в огне! Рождество — прекрасное время для Кларка Грисуолда и его семьи.
Кларк — это стихийное бедствие, которое может обрушиться на вас в любой момент. Теперь Кларк хочет во что бы то ни стало устроить своей семье «самый веселый старомодный семейный праздник Рождества из всех. какие были, есть и будут».
Ну и ну! В это трудно поверить, пока вы не увидите все собственными глазами. 25 000 лампочек на крыше дома Грисуолдов. Взрывающийся индюк на столе… Вот это Рождество!

Выпущено: США / Warner Bros. Pictures
Продолжительность: 01:37:11
Перевод: Профессиональный (многоголосый, закадровый), Профессиональный (полное дублирование),
Профессиональный (двухголосый, закадровый), Авторский (одноголосый, закадровый)

Файл
Качество: BDRip-AVC
Формат: MKV
Видео: MPEG4/AVC, 2914 Кбит/сек, 1024х580 (16:9), 23.976 кадра/сек
Аудио 1: AC3, 2 канала, 192 Кбит/сек | Русский | MVO
Аудио 2: AC3, 2 канала, 192 Кбит/сек | Русский | D | Варус-Видео
Аудио 3: AC3, 2 канала, 192 Кбит/сек | Русский | А. Карповский
Аудио 4: AC3, 2 канала, 192 Кбит/сек | Украинский | MVO | Канал - К1
Аудио 5: AC3, 2 канала, 192 Кбит/сек | Украинский | P2 | Студія 1+1
Аудио 6: AC3, 2 канала, 192 Кбит/сек | Украинский | MVO | Студія ТВ+
Аудио 7: AC3, 2 канала, 192 Кбит/сек | Английский
Субтитры: Английские (Full, SDH), немецкие (Full, SDH)
Навигация по главам: Есть

Доп. информация:

За украинские дорожки спасибо

MediaInfo | Log x264:

x264 [info]: frame I:1213 Avg QP:17.60 size: 94169
x264 [info]: frame P:29096 Avg QP:20.76 size: 29182
x264 [info]: frame B:109500 Avg QP:23.05 size: 10562
_____________________________________________
Общее
Уникальный идентификатор : 202812437622195478295400011903679729281 (0x989441321FA45F0FB1C2356526BE0E81)
Полное имя : Christmas Vacation. (1989) BDRip-AVC.mkv
Формат : Matroska
Версия формата : Version 2
Размер файла : 2,89 Гбайт
Продолжительность : 1 ч. 37 м.
Общий поток : 4255 Кбит/сек
Название фильма : Christmas Vacation. 1989
Дата кодирования : UTC 2015-01-05 10:46:37
Программа кодирования : mkvmerge v5.8.0 ('No Sleep / Pillow') built on Sep 2 2012 15:37:04
Библиотека кодирования : libebml v1.2.3 + libmatroska v1.3.0
Видео
Идентификатор : 1
Формат : AVC
Формат/Информация : Advanced Video Codec
Профиль формата : High@L4.1
Параметр CABAC формата : Да
Параметр ReFrames формата : 10 кадров
Идентификатор кодека : V_MPEG4/ISO/AVC
Продолжительность : 1 ч. 37 м.
Битрейт : 2914 Кбит/сек
Ширина : 1024 пикселя
Высота : 580 пикселей
Соотношение сторон : 16:9
Режим частоты кадров : Постоянный
Частота кадров : 23,976 кадра/сек
Цветовое пространство : YUV
Субдискретизация насыщенности : 4:2:0
Битовая глубина : 8 бит
Тип развёртки : Прогрессивная
Бит/(Пиксели*Кадры) : 0.205
Размер потока : 1,92 Гбайт (66%)
Заголовок : BuR
Библиотека кодирования : x264 core 142 r2491 24e4fed
Настройки программы : cabac=1 / ref=10 / deblock=1:-3:-3 / analyse=0x3:0x133 / me=umh / subme=11 / psy=1 / psy_rd=0.95:0.07 / mixed_ref=1 / me_range=32 / chroma_me=1 / trellis=2 / 8x8dct=1 / cqm=0 / deadzone=21,11 / fast_pskip=0 / chroma_qp_offset=-3 / threads=6 / lookahead_threads=1 / sliced_threads=0 / nr=0 / decimate=0 / interlaced=0 / bluray_compat=0 / constrained_intra=0 / bframes=9 / b_pyramid=2 / b_adapt=2 / b_bias=0 / direct=3 / weightb=1 / open_gop=0 / weightp=2 / keyint=240 / keyint_min=23 / scenecut=40 / intra_refresh=0 / rc=2pass / mbtree=0 / bitrate=2914 / ratetol=2.0 / qcomp=0.70 / qpmin=0 / qpmax=69 / qpstep=4 / cplxblur=20.0 / qblur=0.5 / ip_ratio=1.40 / pb_ratio=1.30 / aq=2:0.70
Язык : English
Default : Да
Forced : Нет
Аудио #1
Идентификатор : 2
Формат : AC-3
Формат/Информация : Audio Coding 3
Расширение режима : CM (complete main)
Параметр Endianness формата : Big
Идентификатор кодека : A_AC3
Продолжительность : 1 ч. 37 м.
Вид битрейта : Постоянный
Битрейт : 192 Кбит/сек
Каналы : 2 канала
Расположение каналов : Front: L R
Частота : 48,0 КГц
Битовая глубина : 16 бит
Метод сжатия : С потерями
Размер потока : 133 Мбайт (5%)
Заголовок : MVO
Язык : Russian
Default : Да
Forced : Нет
Аудио #2
Идентификатор : 3
Формат : AC-3
Формат/Информация : Audio Coding 3
Расширение режима : CM (complete main)
Параметр Endianness формата : Big
Идентификатор кодека : A_AC3
Продолжительность : 1 ч. 37 м.
Вид битрейта : Постоянный
Битрейт : 192 Кбит/сек
Каналы : 2 канала
Расположение каналов : Front: L R
Частота : 48,0 КГц
Битовая глубина : 16 бит
Метод сжатия : С потерями
Размер потока : 133 Мбайт (5%)
Заголовок : D | Варус - Видео
Язык : Russian
Default : Нет
Forced : Нет
Аудио #3
Идентификатор : 4
Формат : AC-3
Формат/Информация : Audio Coding 3
Расширение режима : CM (complete main)
Параметр Endianness формата : Big
Идентификатор кодека : A_AC3
Продолжительность : 1 ч. 37 м.
Вид битрейта : Постоянный
Битрейт : 192 Кбит/сек
Каналы : 2 канала
Расположение каналов : Front: L R
Частота : 48,0 КГц
Битовая глубина : 16 бит
Метод сжатия : С потерями
Размер потока : 133 Мбайт (5%)
Заголовок : A | А.Карповский
Язык : Russian
Default : Нет
Forced : Нет
Аудио #4
Идентификатор : 5
Формат : AC-3
Формат/Информация : Audio Coding 3
Расширение режима : CM (complete main)
Параметр Endianness формата : Big
Идентификатор кодека : A_AC3
Продолжительность : 1 ч. 37 м.
Вид битрейта : Постоянный
Битрейт : 192 Кбит/сек
Каналы : 2 канала
Расположение каналов : Front: L R
Частота : 48,0 КГц
Битовая глубина : 16 бит
Метод сжатия : С потерями
Размер потока : 133 Мбайт (5%)
Заголовок : MVO | Канал - К1
Язык : Ukrainian
Default : Нет
Forced : Нет
Аудио #5
Идентификатор : 6
Формат : AC-3
Формат/Информация : Audio Coding 3
Расширение режима : CM (complete main)
Параметр Endianness формата : Big
Идентификатор кодека : A_AC3
Продолжительность : 1 ч. 37 м.
Вид битрейта : Постоянный
Битрейт : 192 Кбит/сек
Каналы : 2 канала
Расположение каналов : Front: L R
Частота : 48,0 КГц
Битовая глубина : 16 бит
Метод сжатия : С потерями
Задержка видео : 266 мс.
Размер потока : 133 Мбайт (5%)
Заголовок : P2 | Студія 1+1
Язык : Ukrainian
Default : Нет
Forced : Нет
Аудио #6
Идентификатор : 7
Формат : AC-3
Формат/Информация : Audio Coding 3
Расширение режима : CM (complete main)
Параметр Endianness формата : Big
Идентификатор кодека : A_AC3
Продолжительность : 1 ч. 37 м.
Вид битрейта : Постоянный
Битрейт : 192 Кбит/сек
Каналы : 2 канала
Расположение каналов : Front: L R
Частота : 48,0 КГц
Битовая глубина : 16 бит
Метод сжатия : С потерями
Задержка видео : 266 мс.
Размер потока : 133 Мбайт (5%)
Заголовок : MVO | Студія ТВ+
Язык : Ukrainian
Default : Нет
Forced : Нет
Аудио #7
Идентификатор : 8
Формат : AC-3
Формат/Информация : Audio Coding 3
Профиль формата : Dolby Digital
Расширение режима : CM (complete main)
Параметр Endianness формата : Big
Идентификатор кодека : A_AC3
Продолжительность : 1 ч. 37 м.
Вид битрейта : Постоянный
Битрейт : 192 Кбит/сек
Каналы : 2 канала
Расположение каналов : Front: L R
Частота : 48,0 КГц
Битовая глубина : 16 бит
Метод сжатия : С потерями
Размер потока : 133 Мбайт (5%)
Заголовок : Original
Язык : English
Default : Нет
Forced : Нет
Текст #1
Идентификатор : 9
Формат : UTF-8
Идентификатор кодека : S_TEXT/UTF8
Идентификатор кодека/Информация : UTF-8 Plain Text
Заголовок : Full
Язык : English
Default : Нет
Forced : Нет
Текст #2
Идентификатор : 10
Формат : UTF-8
Идентификатор кодека : S_TEXT/UTF8
Идентификатор кодека/Информация : UTF-8 Plain Text
Заголовок : SDH
Язык : English
Default : Нет
Forced : Нет
Текст #3
Идентификатор : 11
Формат : UTF-8
Идентификатор кодека : S_TEXT/UTF8
Идентификатор кодека/Информация : UTF-8 Plain Text
Заголовок : Full
Язык : German
Default : Нет
Forced : Нет
Текст #4
Идентификатор : 12
Формат : UTF-8
Идентификатор кодека : S_TEXT/UTF8
Идентификатор кодека/Информация : UTF-8 Plain Text
Заголовок : SDH
Язык : German
Default : Нет
Forced : Нет
Меню
00:00:00.000 : en:00:00:00.000
00:02:41.661 : en:00:02:41.661
00:07:03.298 : en:00:07:03.298
00:10:53.403 : en:00:10:53.403
00:12:43.930 : en:00:12:43.930
00:14:57.814 : en:00:14:57.814
00:17:33.970 : en:00:17:33.970
00:19:34.173 : en:00:19:34.173
00:29:47.744 : en:00:29:47.744
00:35:45.226 : en:00:35:45.226
00:41:39.414 : en:00:41:39.414
00:44:43.556 : en:00:44:43.556
00:47:26.052 : en:00:47:26.052
00:48:38.666 : en:00:48:38.666
00:51:30.879 : en:00:51:30.879
00:57:31.239 : en:00:57:31.239
00:59:45.832 : en:00:59:45.832
01:01:44.618 : en:01:01:44.618
01:04:18.772 : en:01:04:18.772
01:07:10.860 : en:01:07:10.860
01:10:24.929 : en:01:10:24.929
01:12:01.484 : en:01:12:01.484
01:16:31.170 : en:01:16:31.170
01:18:40.925 : en:01:18:40.925
01:22:34.241 : en:01:22:34.241
01:25:13.817 : en:01:25:13.817
01:28:40.732 : en:01:28:40.732
01:31:21.893 : en:01:31:21.893
01:33:52.961 : en:01:33:52.961

[Цитировать]

Топик был перенесен из форума Комедия в форум Недооформленные торренты
Еrmоhа



Показать сообщения:    

Текущее время: 06-Июл 10:39

Часовой пояс: UTC + 6


Вы не можете начинать темы
Вы не можете отвечать на сообщения
Вы не можете редактировать свои сообщения
Вы не можете удалять свои сообщения
Вы не можете голосовать в опросах
Вы не можете прикреплять файлы к сообщениям
Вы не можете скачивать файлы

!ВНИМАНИЕ!
Сайт не предоставляет электронные версии произведений, а занимается лишь коллекционированием и каталогизацией ссылок, присылаемых и публикуемых на форуме нашими читателями. Если вы являетесь правообладателем какого-либо представленного материала и не желаете, чтобы ссылка на него находилась в нашем каталоге, свяжитесь с нами, и мы незамедлительно удалим ее. Файлы для обмена на трекере предоставлены пользователями сайта, и администрация не несет ответственности за их содержание. Просьба не заливать файлы, защищенные авторскими правами, а также файлы нелегального содержания!