***Уважаемые пользователи и гости !!! Сайт переехал на новый домен Torrents-club.info. Просьба изменить ваши закладки! ***
 
[ Сегодня идет свободное скачивание без начисления Download ]


Статистика раздачи
Скачал: [ 2 ]
 
   
 
 
 
 
Информация о сериале
Название: Захват
Оригинальное название: The Capture
Год выхода: 2019
Жанр: триллер, криминал, детектив
Режиссёр: Бен Чанан
В ролях: Лора Хэддок, Рон Перлман, Шэрон Руни (Бекки), Ли Байфорд (Механик в автобусном депо), Хайтен Пател, Ники Виккери, Каллум Тернер (Шон Эмери), Питер Сингх (Оператор Филлипс), Лия Уильямс, Бен Майлз
Описание: Действие разворачивается в Лондоне в наши дни. Бывшего солдата Шона Эмери (Каллум Тернер) судят за хладнокровное убийство безоружного пленного во время прохождения службы в Афганистане. В качестве основной улики выступает обычная видеозапись. Однако по результату экспертизы военного решают отпустить на свободу. Но вот незадача: всего через несколько часов его вновь настигает полиция и предъявляет новое обвинение. На камеру внешнего слежения попал страшный инцидент. Там отчетливо видно, как Эмери похищает своего же адвоката Ханну Робертс (Лора Хэддок). Все выглядит действительно крайне подозрительно, и у предполагаемого преступника нет алиби. Однако военный детектив Рэйчел Кэри (Холлидей Грейнджер) заподозрила что-то неладное. Именно ей придется разобраться, в чем дело. Возможно, Эмери страдает от посттравматического стрессового расстройства, столь распространенного среди военных, или же имеет место какой-то глобальный заговор, в котором принимают участие самые разные структуры, включая полицию и разведку?

Страна: Великобритания
Студия: BBC One, Heyday Television, NBCUniversal International Studios
Продолжительность: ~ 00:55:00 - серия
Перевод: Профессиональный (многоголосый, закадровый) | Lostfilm
Файл
Кодек: XviD
Качество: WEB-DLRip
Видео: 704x352 (2.00:1), 25 fps, XviD build 73 ~1699 kbps avg, 0.27 bit/pixel
Аудио#1: 48 kHz, AC3 Dolby Digital, 2/0 (L,R) ch, ~192.00 kbps avg | RUS | Lostfilm
Аудио#2: 48 kHz, AC3 Dolby Digital, 2/0 (L,R) ch, ~192.00 kbps avg | ENG | Original
Субтитры: Английские - отдельно
*** Реклама отсутствует
**** Сэмпл: http://sendfile.su/1539760

Список серий

01. Происшествие в Гильменде | What Happens in Helmand
02. Оловянный солдатик | Toy Soldier
03. Трюфельная свинья | Truffle Hog
04. Слепые зоны | Blind Spots
05. Пилигрим правосудия | A Pilgrim of Justice
06. Коррекция | Correction

MediaInfo:

General
Complete name : D:OlLanDGroupThe.Capture.S01.WEB-DLRip.Lostfilm.OlLanDGroupThe.Capture.S01.E01.WEB-DLRip.Lostfilm.OlLanDGroup.avi
Format : AVI
Format/Info : Audio Video Interleave
File size : 834 MiB
Duration : 55 min 35 s
Overall bit rate : 2 098 kb/s
Writing application : VirtualDubMod 1.5.10.2 (build 2540/release)
Writing library : VirtualDubMod build 2540/release
Video
ID : 0
Format : MPEG-4 Visual
Format profile : Advanced Simple@L5
Format settings : BVOP1
Format settings, BVOP : 1
Format settings, QPel : No
Format settings, GMC : No warppoints
Format settings, Matrix : Default (MPEG)
Codec ID : XVID
Codec ID/Hint : XviD
Duration : 55 min 35 s
Bit rate : 1 699 kb/s
Width : 704 pixels
Height : 352 pixels
Display aspect ratio : 2.000
Frame rate : 25.000 FPS
Color space : YUV
Chroma subsampling : 4:2:0
Bit depth : 8 bits
Scan type : Progressive
Compression mode : Lossy
Bits/(Pixel*Frame) : 0.274
Stream size : 676 MiB (81%)
Writing library : XviD 73
Audio #1
ID : 1
Format : AC-3
Format/Info : Audio Coding 3
Commercial name : Dolby Digital
Codec ID : 2000
Duration : 55 min 35 s
Bit rate mode : Constant
Bit rate : 192 kb/s
Channel(s) : 2 channels
Channel layout : L R
Sampling rate : 48.0 kHz
Frame rate : 31.250 FPS (1536 SPF)
Bit depth : 16 bits
Compression mode : Lossy
Stream size : 76.4 MiB (9%)
Alignment : Split accross interleaves
Interleave, duration : 40 ms (1.00 video frame)
Interleave, preload duration : 500 ms
Service kind : Complete Main
Audio #2
ID : 2
Format : AC-3
Format/Info : Audio Coding 3
Commercial name : Dolby Digital
Codec ID : 2000
Duration : 55 min 35 s
Bit rate mode : Constant
Bit rate : 192 kb/s
Channel(s) : 2 channels
Channel layout : L R
Sampling rate : 48.0 kHz
Frame rate : 31.250 FPS (1536 SPF)
Bit depth : 16 bits
Compression mode : Lossy
Stream size : 76.4 MiB (9%)
Alignment : Split accross interleaves
Interleave, duration : 40 ms (1.00 video frame)
Interleave, preload duration : 500 ms
Service kind : Complete Main

Скриншоты


Исходник: Релиз от:

[Цитировать]



Показать сообщения:    

Текущее время: 29-Янв 07:45

Часовой пояс: UTC + 6


Вы не можете начинать темы
Вы не можете отвечать на сообщения
Вы не можете редактировать свои сообщения
Вы не можете удалять свои сообщения
Вы не можете голосовать в опросах
Вы не можете прикреплять файлы к сообщениям
Вы не можете скачивать файлы

!ВНИМАНИЕ!
Сайт не предоставляет электронные версии произведений, а занимается лишь коллекционированием и каталогизацией ссылок, присылаемых и публикуемых на форуме нашими читателями. Если вы являетесь правообладателем какого-либо представленного материала и не желаете, чтобы ссылка на него находилась в нашем каталоге, свяжитесь с нами, и мы незамедлительно удалим ее. Файлы для обмена на трекере предоставлены пользователями сайта, и администрация не несет ответственности за их содержание. Просьба не заливать файлы, защищенные авторскими правами, а также файлы нелегального содержания!