***Уважаемые пользователи и гости !!! Сайт переехал на новый домен Torrents-club.info. Просьба изменить ваши закладки! ***
 
[ Сегодня идет свободное скачивание без начисления Download ]


Статистика раздачи
Качаю: [ 2 ]
Скачал: [ 2 ]
 
   
 
 
 
 
Особь 2 / Species II (1998) BDRip 720p | 60 fps Год выпуска: 1998
Страна: США
Жанр: ужасы, фантастика
Продолжительность: 01:33:02
Перевод: Профессиональный (многоголосый, закадровый)
Субтитры: Русские
Режиссер: Питер Медак

В ролях:
Майкл Мэдсен, Наташа Хенстридж, Марг Хельгенбергер, М. Уильямсон, Джордж Дзундза, Джеймс Кромуэлл, Джастин Лазард, Мириам Сир
Описание:
Учёные — астронавты возвращаются на Землю после успешной экспедиции на Марс. Однако с различными пробами на корабль проникает нечто ужасное, что угрожает жизни землян. Один из участников полёта превращается в неземную тварь и жаждет наплодить себе подобных. Ему необходимо встретиться с другой особью, которую изучают в лаборатории. Этого не должно произойти…
Качество: BDRip 720p / 60 FPS
Формат: MKV
Видео кодек: H.264
Аудио кодек: AC3
Видео: x264, 1280 x 688 (1,85:1 ), 4130 kbps, 60,000 fps, ( 0.078 bpp)
Аудио#1: Русский, AC-3, 48.0 KHz, 2 ch, 192 Kbps ( MVO Варус Видео )

MediaInfo:

x264 [info]: frame I:1817 Avg QP:15.54 size: 91469 PSNR Mean Y:48.45 U:52.70 V:53.06 Avg:49.24 Global:48.99
x264 [info]: frame P:72385 Avg QP:19.09 size: 22680 PSNR Mean Y:46.04 U:51.34 V:51.66 Avg:46.89 Global:46.58
x264 [info]: frame B:260406 Avg QP:21.97 size: 4113 PSNR Mean Y:45.34 U:50.80 V:51.44 Avg:46.25 Global:45.87
x264 [info]: consecutive B-frames: 1.1% 1.3% 4.9% 11.1% 71.8% 9.8%
Общее
Уникальный идентификатор : 173225283409888832685136513731409912597 (0x8251F9DE0BD7AACCAC64DD72423AA315)
Полное имя : F:\Species.II.(1998).BDRip.720p.(60 Fps).mkv
Формат : Matroska
Версия формата : Version 4
Размер файла : 2,81 Гбайт
Продолжительность : 1 ч. 32 м.
Общий поток : 4326 Кбит/сек
Название фильма : Особь 2 / Species II (1998) BDRip 720p (60 Fps)
Дата кодирования : UTC 2019-12-31 14:40:42
Программа кодирования : mkvmerge v12.0.0 ('Trust / Lust') 64bit
Библиотека кодирования : libebml v1.3.4 + libmatroska v1.4.5
Видео
Идентификатор : 1
Формат : AVC
Формат/Информация : Advanced Video Codec
Профиль формата : High@L4.1
Настройки формата : CABAC / 8 Ref Frames
Параметр CABAC формата : Да
Параметр RefFrames формата : 8 кадров
Идентификатор кодека : V_MPEG4/ISO/AVC
Продолжительность : 1 ч. 32 м.
Битрейт : 4130 Кбит/сек
Ширина : 1280 пикселей
Высота : 688 пикселей
Соотношение сторон : 1,85:1
Режим частоты кадров : Постоянный
Частота кадров : 60,000 кадров/сек
Цветовое пространство : YUV
Субдискретизация насыщенности : 4:2:0
Битовая глубина : 8 бит
Тип развёртки : Прогрессивная
Бит/(Пиксели*Кадры) : 0.078
Размер потока : 2,68 Гбайт (95%)
Заголовок : slaventi-69 ( R.G. HD-Films | 60 fps )
Библиотека кодирования : x264 core 130 r2273 b3065e6
Настройки программы : cabac=1 / ref=8 / deblock=1:-1:-1 / analyse=0x3:0x113 / me=umh / subme=9 / psy=1 / psy_rd=1.00:0.00 / mixed_ref=1 / me_range=24 / chroma_me=1 / trellis=2 / 8x8dct=1 / cqm=0 / deadzone=21,11 / fast_pskip=1 / chroma_qp_offset=-2 / threads=8 / lookahead_threads=2 / sliced_threads=0 / nr=0 / decimate=1 / interlaced=0 / bluray_compat=0 / constrained_intra=0 / bframes=5 / b_pyramid=2 / b_adapt=2 / b_bias=0 / direct=2 / weightb=1 / open_gop=0 / weightp=2 / keyint=250 / keyint_min=25 / scenecut=40 / intra_refresh=0 / rc_lookahead=40 / rc=crf / mbtree=1 / crf=17.0 / qcomp=0.60 / qpmin=0 / qpmax=69 / qpstep=4 / ip_ratio=1.40 / aq=1:1.00
Язык : English
Default : Да
Forced : Нет
Аудио
Идентификатор : 2
Формат : AC-3
Формат/Информация : Audio Coding 3
Коммерческое название : Dolby Digital
Идентификатор кодека : A_AC3
Продолжительность : 1 ч. 32 м.
Вид битрейта : Постоянный
Битрейт : 192 Кбит/сек
Каналы : 2 канала
Channel layout : L R
Частота : 48,0 КГц
Частота кадров : 31,250 кадров/сек (1536 SPF)
Битовая глубина : 16 бит
Метод сжатия : С потерями
Размер потока : 128 Мбайт (4%)
Заголовок : MVO Варус Видео
Язык : Russian
ServiceKind/String : Complete Main
Default : Да
Forced : Нет
Текст
Идентификатор : 3
Формат : UTF-8
Идентификатор кодека : S_TEXT/UTF8
Идентификатор кодека/Информация : UTF-8 Plain Text
Продолжительность : 1 ч. 26 м.
Битрейт : 81 бит/сек
ElementCount : 848
Размер потока : 51,7 Кбайт (0%)
Язык : Russian
Default : Нет
Forced : Нет

[Цитировать]



Показать сообщения:    

Текущее время: 21-Янв 15:24

Часовой пояс: UTC + 6


Вы не можете начинать темы
Вы не можете отвечать на сообщения
Вы не можете редактировать свои сообщения
Вы не можете удалять свои сообщения
Вы не можете голосовать в опросах
Вы не можете прикреплять файлы к сообщениям
Вы не можете скачивать файлы

!ВНИМАНИЕ!
Сайт не предоставляет электронные версии произведений, а занимается лишь коллекционированием и каталогизацией ссылок, присылаемых и публикуемых на форуме нашими читателями. Если вы являетесь правообладателем какого-либо представленного материала и не желаете, чтобы ссылка на него находилась в нашем каталоге, свяжитесь с нами, и мы незамедлительно удалим ее. Файлы для обмена на трекере предоставлены пользователями сайта, и администрация не несет ответственности за их содержание. Просьба не заливать файлы, защищенные авторскими правами, а также файлы нелегального содержания!