***Уважаемые пользователи и гости !!! Сайт переехал на новый домен Torrents-club.info. Просьба изменить ваши закладки! ***
 
[ Сегодня идет свободное скачивание без начисления Download ]


Статистика раздачи
Скачал: [ 2 ]
 
   
 
 
 
 
Лучшие враги [1-14 серии из 30] (2014) WEBRip Информация о сериале
Оригинальное название: Лучшие враги
Год выпуска: 2014
Жанр: Криминал, детектив
Режиссер: Богдан Дробязко
В ролях: Сергей Селин, Алексей Нилов, Вера Сотникова, Андрей Зибров, Сергей Апрельский, Анна Табанина, Алексей Фокин, Игорь Павлов, Ирина Обрезкова, Михаил Сидаш, Роман Притула, Геннадий Алимпиев, Александр Петров (X), Жанна Куприянова, Евгений Карпов, Ирина Ворон, Виктор Чупров, Владимир Чернышов, Кузьма Стомаченко, Владимир Бойков (III), Мария Жиганова, Андрей Гульнев, Валентина Лебедева (II), Артем Цыпин, Константин Фисенко, Денис Ворошилов, Александр Голубков (II), Антон Виноградов (II)
О сериале: Главные герои этого сериала - Глеб Данилов, подполковник, начальник оперативно-розыскной группы ГУВД, и Владимир Старыгин, тоже подполковник, начальник аналитической группы. Два начальника, два опытных работника – они друг друга недолюбливают. Данилов – простой мужик, через три слова мат, через два – рюмка. Старыгин – интеллигент, аристократ. Данилов, хоть и подполковник, ночами сидит с операми в засаде, спит в кабинете на стульях. Оперов любит по-отцовски, старается их прикрывать, если кто проколется. Подчиненные к нему, соответственно относятся, что называется, – в огонь и в воду. Старыгин сидит в уютном офисе в окружении трех сотрудников.
Выпущено: Россия, Триикс Медиа
Продолжительность: x ~ 00:46:00
Перевод: Не требуется
Файл
Качество: WEBRip
Видео: XviD, ~ 1600 Кбит/с, 720x400, 25 кадр/с
Аудио: AC3, 2 ch, 192 Кбит/с
Язык: Русский

Скриншоты


MediaInfo

General
Complete name: H:\fiiles x\Лучшие враги..2014.WEB-DLRip.Files-x\01. Лучшие враги..2014.WEB-DLRip.Files-x.avi
Format: AVI
Format/Info: Audio Video Interleave
File size: 592 MiB
Duration: 45mn 56s
Overall bit rate: 1 802 Kbps
Writing application: VirtualDubMod 1.5.10.3 | www.virtualdub-fr.org || (build 2550/release)
Writing library: VirtualDubMod build 2550/release
Video
ID: 0
Format: MPEG-4 Visual
Format profile: Advanced Simple@L5
Format settings, BVOP: 1
Format settings, QPel: No
Format settings, GMC: No warppoints
Format settings, Matrix: Custom
Codec ID: XVID
Codec ID/Hint: XviD
Duration: 45mn 56s
Bit rate: 1 600 Kbps
Width: 720 pixels
Height: 400 pixels
Display aspect ratio: 16:9
Frame rate: 25.000 fps
Color space: YUV
Chroma subsampling: 4:2:0
Bit depth: 8 bits
Scan type: Progressive
Compression mode: Lossy
Bits/(Pixel*Frame): 0.222
Stream size: 526 MiB (89%)
Writing library: XviD 73
Audio
ID: 1
Format: AC-3
Format/Info: Audio Coding 3
Mode extension: CM (complete main)
Codec ID: 2000
Duration: 45mn 56s
Bit rate mode: Constant
Bit rate: 192 Kbps
Channel(s): 2 channels
Channel positions: Front: L R
Sampling rate: 48.0 KHz
Bit depth: 16 bits
Compression mode: Lossy
Stream size: 63.1 MiB (11%)
Alignment: Split accross interleaves
Interleave, duration: 40 ms (1.00 video frame)
Interleave, preload duration: 500 ms

Внимание! Раздача ведётся путём добавления новых серий

Раздача ведётся путём добавления новых серий, при каждом добавлении создаётся новый торрент. Чтобы начать докачку новой серии, пользователям необходимо сделать следующее:
- Остановить скачивание.
- Удалить старый торрент у себя из клиента (старые серии удалять не надо).
-
Ваш клиент при этом должен произвести хеширование (проверку) старой папки (если не производит сам - помогите ему сделать это), и будет докачивать только те серии которых у вас ещё нет. Старые серии при этом не удаляются, а продолжают раздаваться!
Добавлены 1-14 серии.Релиз от:

[Цитировать]

Добавлены 12-14 серии.

[Цитировать]



Показать сообщения:    

Текущее время: 21-Янв 14:03

Часовой пояс: UTC + 6


Вы не можете начинать темы
Вы не можете отвечать на сообщения
Вы не можете редактировать свои сообщения
Вы не можете удалять свои сообщения
Вы не можете голосовать в опросах
Вы не можете прикреплять файлы к сообщениям
Вы не можете скачивать файлы

!ВНИМАНИЕ!
Сайт не предоставляет электронные версии произведений, а занимается лишь коллекционированием и каталогизацией ссылок, присылаемых и публикуемых на форуме нашими читателями. Если вы являетесь правообладателем какого-либо представленного материала и не желаете, чтобы ссылка на него находилась в нашем каталоге, свяжитесь с нами, и мы незамедлительно удалим ее. Файлы для обмена на трекере предоставлены пользователями сайта, и администрация не несет ответственности за их содержание. Просьба не заливать файлы, защищенные авторскими правами, а также файлы нелегального содержания!