***Уважаемые пользователи и гости !!! Сайт переехал на новый домен Torrents-club.info. Просьба изменить ваши закладки! ***
 
[ Сегодня идет свободное скачивание без начисления Download ]


Статистика раздачи
Скачал: [ 8 ]
 
   
 
 
 
 
Коридор бессмертия Год выпуска: 2019
Жанр: Драма, военный, история
Выпущено: Россия, Студия «Стелла»
Режиссер: Федор Попов
В ролях: Артем Алексеев, Анастасия Цибизова, Игорь Ясулович, Артём Мельничук, Александр Яценко, Дарья Екамасова, Анатолий Горячев, Александр Обласов, Светлана Смирнова-Кацагаджиева, Тагир Рахимов
О фильме: Вчерашняя ленинградская школьница Маша Яблочкина после лютой блокадной зимы 1941-1942 года приходит на железнодорожные курсы в надежде выжить и набраться сил. Оттуда девушку отправляют на строительство Шлиссельбургской магистрали, соединяющей город с Большой землей и находящейся в прямой видимости немецкой артиллерии. Так героиня попадает в 48-ю паровозную колонну особого резерва НКПС, которой ценой смертельного риска предстоит доставить в Ленинград 75% всех грузов и военного снаряжения.

Качество: WEB-DLRip
Видео: XviD build 73, 720x304 (2.35:1), 23.976 fps, 1290 Kbps (0.246 bit/pixel)
Аудио: 48.0 kHz, AC3, 2/0 ch, 192 kbps
Продолжительность: 02:19:55
Перевод: Не требуется [Русский]
Cубтитры: нет

Скриншоты

MediaInfo

General
Complete name : D:RazdachiKoridor.Bessmertija.2019.WEB-DLRip.GeneralFilm.avi
Format : AVI
Format/Info : Audio Video Interleave
File size : 1.46 GiB
Duration : 2 h 19 min
Overall bit rate : 1 492 kb/s
Writing application : VirtualDubMod 1.5.10.3 | www.virtualdub-fr.org || (build 2550/release)
Writing library : VirtualDubMod build 2550/release
Video
ID : 0
Format : MPEG-4 Visual
Format profile : Advanced Simple@L5
Format settings : BVOP1 / Custom Matrix
Format settings, BVOP : 1
Format settings, QPel : No
Format settings, GMC : No warppoints
Format settings, Matrix : Custom
Codec ID : XVID
Codec ID/Hint : XviD
Duration : 2 h 19 min
Bit rate : 1 290 kb/s
Width : 720 pixels
Height : 304 pixels
Display aspect ratio : 2.35:1
Frame rate : 23.976 (24000/1001) FPS
Color space : YUV
Chroma subsampling : 4:2:0
Bit depth : 8 bits
Scan type : Progressive
Compression mode : Lossy
Bits/(Pixel*Frame) : 0.246
Stream size : 1.26 GiB (86%)
Writing library : XviD 73
Audio
ID : 1
Format : AC-3
Format/Info : Audio Coding 3
Commercial name : Dolby Digital
Codec ID : 2000
Duration : 2 h 19 min
Bit rate mode : Constant
Bit rate : 192 kb/s
Channel(s) : 2 channels
Channel layout : L R
Sampling rate : 48.0 kHz
Frame rate : 31.250 FPS (1536 SPF)
Compression mode : Lossy
Stream size : 192 MiB (13%)
Alignment : Split across interleaves
Interleave, duration : 42 ms (1.00 video frame)
Interleave, preload duratio : 500 ms
Service kind : Complete Main
Релиз от:

[Цитировать]



Показать сообщения:    

Текущее время: 29-Фев 19:37

Часовой пояс: UTC + 6


Вы не можете начинать темы
Вы не можете отвечать на сообщения
Вы не можете редактировать свои сообщения
Вы не можете удалять свои сообщения
Вы не можете голосовать в опросах
Вы не можете прикреплять файлы к сообщениям
Вы не можете скачивать файлы

!ВНИМАНИЕ!
Сайт не предоставляет электронные версии произведений, а занимается лишь коллекционированием и каталогизацией ссылок, присылаемых и публикуемых на форуме нашими читателями. Если вы являетесь правообладателем какого-либо представленного материала и не желаете, чтобы ссылка на него находилась в нашем каталоге, свяжитесь с нами, и мы незамедлительно удалим ее. Файлы для обмена на трекере предоставлены пользователями сайта, и администрация не несет ответственности за их содержание. Просьба не заливать файлы, защищенные авторскими правами, а также файлы нелегального содержания!