***Уважаемые пользователи и гости !!! Сайт переехал на новый домен Torrents-club.info. Просьба изменить ваши закладки! ***
 
[ Сегодня идет свободное скачивание без начисления Download ]


Статистика раздачи
Скачал: [ 2 ]
 
   
 
 
 
 
Стражи Арктики / Arctic Justice Информация о фильме
Название: Стражи Арктики
Оригинальное название: Arctic Justice
Год выпуска: 2019
Жанр: Мультфильм, комедия, приключения
Режиссер: Аарон Вудли
В ролях: Джереми Реннер, Хайди Клум, Джеймс Франко, Джон Клиз, Омар Си, Лори Холден, Анжелика Хьюстон, Алек Болдуин, Донни Фалсетти, Сорайя Аззаби

Добро пожаловать на ЗвероПолюс, где власть находится в лапах больших, сильных и зубастых. Ради собственного превосходства они готовы переделать под себя весь мир. Лишь маленькие, но очень храбрые встанут на защиту не только родного Северного полюса, но и целой планеты. Именно они — настоящие Стражи Арктики.

Страна:Индия, Великобритания, Китай, Канада, Япония, Корея Южная, США
Студия: AMBI Group, Arctic Justice Movie, Assemblage Entertainment, Мосфильм-Мастер, QMI
Продолжительность: 01:32:54
Перевод:Дубляж
Файл
Кодек: H.264
Качество: BDRip 720
Видео: 1280x536 (2.40:1), 2010 kbps, 23.976 fps
Звук: Русский (AC3, 6ch, 384 Кбит/с)
Английский (AC-3, 6ch, 640 kbps)
Субтитры: английские

MI

x264 info: frame I:1507 Avg QP:12.82 size:122945
x264 info: frame P:31797 Avg QP:17.05 size: 21356
x264 info: frame B:100329 Avg QP:21.55 size: 5346
x264 info: consecutive B-frames: 2.3% 2.2% 15.2% 34.6% 14.1% 24.0% 2.1% 2.6% 2.8%
General
Unique ID : 135874255660761229570635040939950686835 (0x66386E05118729753B53D5B51E5F4273)
Complete name : F:ФИЛЬМЫРУТОРСтражи Арктики. BDRip 720p.mkv
Format : Matroska
Format version : Version 4
File size : 1.97 GiB
Duration : 1 h 32 min
Overall bit rate : 3 036 kb/s
Movie name : Стражи Арктики / Arctic Justice (2019) - #LORDKILL#
Encoded date : UTC 2020-01-30 12:58:32
Writing application : mkvmerge v32.0.0 ('Astral Progressions') 64-bit
Writing library : libebml v1.3.7 + libmatroska v1.5.0
Video
ID : 1
Format : AVC
Format/Info : Advanced Video Codec
Format profile : High@L4.1
Format settings : CABAC / 12 Ref Frames
Format settings, CABAC : Yes
Format settings, Reference : 12 frames
Codec ID : V_MPEG4/ISO/AVC
Duration : 1 h 32 min
Bit rate : 2 010 kb/s
Width : 1 280 pixels
Height : 536 pixels
Display aspect ratio : 2.40:1
Frame rate mode : Constant
Frame rate : 23.976 (24000/1001) FPS
Color space : YUV
Chroma subsampling : 4:2:0
Bit depth : 8 bits
Scan type : Progressive
Bits/(Pixel*Frame) : 0.122
Stream size : 1.30 GiB (66%)
Title : Стражи Арктики / Arctic Justice (2019)
Writing library : x264 core 157 r2969 d4099dd
Encoding settings : cabac=1 / ref=12 / deblock=1:-1:-1 / analyse=0x3:0x133 / me=umh / subme=10 / psy=1 / psy_rd=1.00:0.20 / mixed_ref=1 / me_range=32 / chroma_me=1 / trellis=2 / 8x8dct=1 / cqm=0 / deadzone=21,11 / fast_pskip=0 / chroma_qp_offset=-3 / threads=9 / lookahead_threads=1 / sliced_threads=0 / nr=0 / decimate=1 / interlaced=0 / bluray_compat=0 / constrained_intra=0 / bframes=8 / b_pyramid=2 / b_adapt=2 / b_bias=0 / direct=3 / weightb=1 / open_gop=0 / weightp=2 / keyint=240 / keyint_min=24 / scenecut=40 / intra_refresh=0 / rc_lookahead=40 / rc=crf / mbtree=1 / crf=17.0 / qcomp=0.60 / qpmin=0 / qpmax=69 / qpstep=4 / ip_ratio=1.40 / aq=1:1.00
Language : English
Default : Yes
Forced : No
Audio #1
ID : 2
Format : AC-3
Format/Info : Audio Coding 3
Commercial name : Dolby Digital
Codec ID : A_AC3
Duration : 1 h 32 min
Bit rate mode : Constant
Bit rate : 384 kb/s
Channel(s) : 6 channels
Channel layout : L R C LFE Ls Rs
Sampling rate : 48.0 kHz
Frame rate : 31.250 FPS (1536 SPF)
Compression mode : Lossy
Stream size : 255 MiB (13%)
Title : Дубляж - iTunes
Language : Russian
Service kind : Complete Main
Default : Yes
Forced : No
Audio #2
ID : 3
Format : AC-3
Format/Info : Audio Coding 3
Commercial name : Dolby Digital
Codec ID : A_AC3
Duration : 1 h 32 min
Bit rate mode : Constant
Bit rate : 640 kb/s
Channel(s) : 6 channels
Channel layout : L R C LFE Ls Rs
Sampling rate : 48.0 kHz
Frame rate : 31.250 FPS (1536 SPF)
Compression mode : Lossy
Stream size : 425 MiB (21%)
Title : Original
Language : English
Service kind : Complete Main
Default : No
Forced : No
Text
ID : 4
Format : UTF-8
Codec ID : S_TEXT/UTF8
Codec ID/Info : UTF-8 Plain Text
Duration : 1 h 31 min
Bit rate : 69 b/s
Count of elements : 1599
Stream size : 46.7 KiB (0%)
Title : SDH
Language : English
Default : Yes
Forced : No
Menu
00:00:00.000 : :Chapter 01
00:06:18.628 : :Chapter 02
00:12:54.524 : :Chapter 03
00:18:57.553 : :Chapter 04
00:23:55.267 : :Chapter 05
00:27:27.521 : :Chapter 06
00:33:06.151 : :Chapter 07
00:39:50.388 : :Chapter 08
00:47:18.002 : :Chapter 09
00:52:12.796 : :Chapter 10
00:58:18.370 : :Chapter 11
01:04:20.607 : :Chapter 12
01:12:02.193 : :Chapter 13
01:16:21.744 : :Chapter 14
01:20:27.489 : :Chapter 15
01:26:59.548 : :Chapter 16

Скриншоты

[Цитировать]



Показать сообщения:    

Текущее время: 19-Фев 23:33

Часовой пояс: UTC + 6


Вы не можете начинать темы
Вы не можете отвечать на сообщения
Вы не можете редактировать свои сообщения
Вы не можете удалять свои сообщения
Вы не можете голосовать в опросах
Вы не можете прикреплять файлы к сообщениям
Вы не можете скачивать файлы

!ВНИМАНИЕ!
Сайт не предоставляет электронные версии произведений, а занимается лишь коллекционированием и каталогизацией ссылок, присылаемых и публикуемых на форуме нашими читателями. Если вы являетесь правообладателем какого-либо представленного материала и не желаете, чтобы ссылка на него находилась в нашем каталоге, свяжитесь с нами, и мы незамедлительно удалим ее. Файлы для обмена на трекере предоставлены пользователями сайта, и администрация не несет ответственности за их содержание. Просьба не заливать файлы, защищенные авторскими правами, а также файлы нелегального содержания!