***Уважаемые пользователи и гости !!! Сайт переехал на новый домен Torrents-club.info. Просьба изменить ваши закладки! ***
 
[ Сегодня идет свободное скачивание без начисления Download ]


Статистика раздачи
Нет
 
   
 
 
 
 
Газонокосильщик / The Lawnmower Man (1992) BDRip 720p | 60 fps Год выпуска: 1992
Страна: Великобритания, США, Япония
Жанр: Ужасы, фантастика, боевик, триллер, мелодрама
Продолжительность: 2:20:53
Перевод: Профессиональный (многоголосый, закадровый)
Субтитры: Русские,
Режиссер: Бретт Леонард
Бюджет: $10 000 000
Премьера в мире: 6 марта 1992

В ролях:
Джефф Фэйи, Пирс Броснан, Дженни Райт, Марк Бринглсон, Джеффри Льюис, Джереми Слейт, Дин Норрис, Коллин Коффи, Джим Лэндис, Трой Эванс
Описание:
Молодой талантливый ученый Трэйс ставит над умственно неполноценным косильщиком лужаек Джоубом эксперименты с использованием высоких компьютерных технологий в комбинации с наркотиками. Трэйс внедряет Джоуба в виртуальную реальность — трехмерный компьютерный мир. Ученому удается развить умственные способности вчерашнего недоумка до супергения. Но в ход эксперимента тайно вмешиваются военные, и испытуемый превращается в сверхинтеллектуального монстра-психопата в человеческом облике, у которого возникают претензии на мировое господство.
Качество: BDRip 720p / 60 FPS
Формат: MKV
Видео кодек: H.264
Аудио кодек: AC3
Видео: x264, 1280 x 688 (1,85:1), 5827 kbps, 60,000 fps, ( 0.110 bpp)
Аудио#1: Русский, AC-3, 48.0 KHz, 6 ch, 384 Kbps Профессиональный (многоголосый, закадровый) R5 от Lizard

MediaInfo:

x264 [info]: frame I:2798 Avg QP:16.87 size:119440 PSNR Mean Y:46.77 U:50.95 V:52.55 Avg:47.83 Global:47.49
x264 [info]: frame P:124493 Avg QP:19.83 size: 26802 PSNR Mean Y:44.32 U:49.30 V:50.83 Avg:45.47 Global:45.05
x264 [info]: frame B:379392 Avg QP:23.01 size: 6538 PSNR Mean Y:43.38 U:49.07 V:50.70 Avg:44.62 Global:44.09
x264 [info]: consecutive B-frames: 2.9% 3.3% 10.2% 19.0% 49.7% 15.0%
Общее
Уникальный идентификатор : 252021866485259281703325053365850711726 (0xBD99A55BB26220E2910E6DA658CFA6AE)
Полное имя : F:\The.Lawnmower.Man.(1992).BDRip.720p.(60 Fps)(Directors.Cut).mkv
Формат : Matroska
Версия формата : Version 4
Размер файла : 6,11 Гбайт
Продолжительность : 2 ч. 20 м.
Общий поток : 6215 Кбит/сек
Название фильма : Газонокосильщик / The Lawnmower Man (1992) BDRip 720p (60 Fps) Directors Cut
Дата кодирования : UTC 2019-11-28 17:19:13
Программа кодирования : mkvmerge v12.0.0 ('Trust / Lust') 64bit
Библиотека кодирования : libebml v1.3.4 + libmatroska v1.4.5
Видео
Идентификатор : 1
Формат : AVC
Формат/Информация : Advanced Video Codec
Профиль формата : High@L4.1
Настройки формата : CABAC / 8 Ref Frames
Параметр CABAC формата : Да
Параметр RefFrames формата : 8 кадров
Идентификатор кодека : V_MPEG4/ISO/AVC
Продолжительность : 2 ч. 20 м.
Битрейт : 5827 Кбит/сек
Ширина : 1280 пикселей
Высота : 688 пикселей
Соотношение сторон : 1,85:1
Режим частоты кадров : Постоянный
Частота кадров : 60,000 кадров/сек
Цветовое пространство : YUV
Субдискретизация насыщенности : 4:2:0
Битовая глубина : 8 бит
Тип развёртки : Прогрессивная
Бит/(Пиксели*Кадры) : 0.110
Размер потока : 5,73 Гбайт (94%)
Заголовок : slaventi-69 ( R.G. HD-Films | 60 fps )
Библиотека кодирования : x264 core 130 r2273 b3065e6
Настройки программы : cabac=1 / ref=8 / deblock=1:-1:-1 / analyse=0x3:0x113 / me=umh / subme=9 / psy=1 / psy_rd=1.00:0.00 / mixed_ref=1 / me_range=26 / chroma_me=1 / trellis=2 / 8x8dct=1 / cqm=0 / deadzone=21,11 / fast_pskip=1 / chroma_qp_offset=-2 / threads=10 / lookahead_threads=2 / sliced_threads=0 / nr=0 / decimate=1 / interlaced=0 / bluray_compat=0 / constrained_intra=0 / bframes=5 / b_pyramid=2 / b_adapt=2 / b_bias=0 / direct=2 / weightb=1 / open_gop=0 / weightp=2 / keyint=250 / keyint_min=25 / scenecut=40 / intra_refresh=0 / rc_lookahead=40 / rc=crf / mbtree=1 / crf=17.5 / qcomp=0.60 / qpmin=0 / qpmax=69 / qpstep=4 / ip_ratio=1.40 / aq=1:1.00
Язык : English
Default : Да
Forced : Нет
Аудио
Идентификатор : 2
Формат : AC-3
Формат/Информация : Audio Coding 3
Коммерческое название : Dolby Digital
Идентификатор кодека : A_AC3
Продолжительность : 2 ч. 20 м.
Вид битрейта : Постоянный
Битрейт : 384 Кбит/сек
Каналы : 6 каналов
Channel layout : L R C LFE Ls Rs
Частота : 48,0 КГц
Частота кадров : 31,250 кадров/сек (1536 SPF)
Битовая глубина : 16 бит
Метод сжатия : С потерями
Размер потока : 387 Мбайт (6%)
Заголовок : MVO |R5 от Lizard|
Язык : Russian
ServiceKind/String : Complete Main
Default : Да
Forced : Нет
Текст
Идентификатор : 3
Формат : UTF-8
Идентификатор кодека : S_TEXT/UTF8
Идентификатор кодека/Информация : UTF-8 Plain Text
Продолжительность : 2 ч. 14 м.
Битрейт : 75 бит/сек
ElementCount : 1352
Размер потока : 74,6 Кбайт (0%)
Язык : Russian
Default : Нет
Forced : Нет

[Цитировать]

Фильм классный! Это расширеная версия?

[Цитировать]



Показать сообщения:    

Текущее время: 19-Сен 02:20

Часовой пояс: UTC + 6


Вы не можете начинать темы
Вы не можете отвечать на сообщения
Вы не можете редактировать свои сообщения
Вы не можете удалять свои сообщения
Вы не можете голосовать в опросах
Вы не можете прикреплять файлы к сообщениям
Вы не можете скачивать файлы

!ВНИМАНИЕ!
Сайт не предоставляет электронные версии произведений, а занимается лишь коллекционированием и каталогизацией ссылок, присылаемых и публикуемых на форуме нашими читателями. Если вы являетесь правообладателем какого-либо представленного материала и не желаете, чтобы ссылка на него находилась в нашем каталоге, свяжитесь с нами, и мы незамедлительно удалим ее. Файлы для обмена на трекере предоставлены пользователями сайта, и администрация не несет ответственности за их содержание. Просьба не заливать файлы, защищенные авторскими правами, а также файлы нелегального содержания!